<?xml version="1.0" standalone="no"?>
<!DOCTYPE svg PUBLIC "-//W3C//DTD SVG 1.1//EN" "http://www.w3.org/Graphics/SVG/1.1/DTD/svg11.dtd" >
<svg xmlns="http://www.w3.org/2000/svg">
<metadata></metadata>
<defs>
<font id="bang_whack_powregular" horiz-adv-x="1107" >
<font-face units-per-em="2048" ascent="1536" descent="-512" />
<missing-glyph horiz-adv-x="526" />
<glyph horiz-adv-x="2048" />
<glyph horiz-adv-x="2048" />
<glyph unicode="&#xd;" horiz-adv-x="2048" />
<glyph unicode=" "  horiz-adv-x="526" />
<glyph unicode="&#x09;" horiz-adv-x="526" />
<glyph unicode="&#xa0;" horiz-adv-x="526" />
<glyph unicode="!" horiz-adv-x="468" d="M56 56.5q-5 25.5 14.5 57t62.5 62.5q45 31 81 31t59.5 -18.5t31.5 -49t-2 -61.5t-43 -53.5t-90 -24.5q-51 -2 -80 14.5t-34 42zM92 1430l234 -15l-2 -49t-7.5 -128t-11.5 -180.5t-12 -207t-12.5 -207.5t-11.5 -181t-8 -128t-3 -51l-129 10l-1 49q-1 49 -3 128t-5 181.5 t-6 208t-7.5 207.5t-7.5 182t-5 129t-2 52z" />
<glyph unicode="&#x22;" horiz-adv-x="595" d="M45 1413l213 14q0 -2 -1 -26.5t-4 -64.5t-6 -90t-7 -101q-8 -123 -19 -279l-108 -10l-7 41q-6 41 -14 102.5t-16 134t-15.5 134t-12.5 103.5t-3 42zM330 1427l213 -14q2 0 -3 -42t-12.5 -103.5t-15.5 -134t-16.5 -134t-14.5 -102.5l-6 -41l-108 10q-10 156 -19 279 q-4 51 -7 101t-6 90t-4 64.5t-1 26.5z" />
<glyph unicode="#" horiz-adv-x="790" d="M25 608.5q0 16.5 2 38.5l4 58q12 0 26 2q12 2 30.5 3t41.5 5l29 100q-29 0 -53.5 1t-41.5 1h-36q-2 0 -2 16.5t2 38.5l4 58q20 0 47 4q23 2 53.5 5t65.5 7q29 92 48 154.5t21 62.5t29 -8t57.5 -17.5t56 -18.5t25.5 -13t-15.5 -43t-39.5 -98l78 6q25 80 41 134t18 54 t27.5 -7t56.5 -16.5t57.5 -19.5t26.5 -14t-11 -35t-32 -78q18 2 34.5 2t26.5 2q12 0 25 2q0 -2 3 -28.5t6 -59.5t4 -60.5t-3 -29.5t-51 -3t-117 -1l-24 -59q39 4 71.5 7t57.5 5q29 2 53 4q0 -2 3 -28.5t6 -59.5t4 -60.5t-3 -29.5q-2 0 -23.5 -1t-57 -2t-83 -1h-98.5 q-14 -31 -24.5 -57.5t-18.5 -45.5q-8 -23 -16 -41q-2 -2 -17.5 5.5t-36.5 17.5q-23 10 -51 25q4 12 8 26q4 12 8.5 30.5t12.5 41.5h-115q-14 -31 -24.5 -57.5t-18.5 -45.5q-8 -23 -16 -38q-2 -2 -17.5 4t-33.5 16q-23 10 -52 25q4 12 9 26q4 12 8 29.5t12 40.5h-47 q-10 0 -18 2q-2 0 -2 16.5zM283 729q25 4 50 6t52 4q6 18 12 37t11 37q-23 0 -45.5 1t-45.5 1q-8 -23 -16 -43t-18 -43z" />
<glyph unicode="$" horiz-adv-x="972" d="M10 872q2 61 32 119t80 105t119.5 78.5t153.5 42.5v204l129 11l13 -211q106 -6 177.5 -30t114.5 -50.5t61 -48.5l19 -21l-21 -29q-20 -30 -46.5 -65t-48 -63.5t-21.5 -26.5l-16 17q-15 16 -43.5 35t-69.5 39.5t-94 31.5l14 -222q59 6 119.5 3t111 -26.5t87.5 -71.5 t47 -134q8 -78 -18.5 -136t-75 -99t-110.5 -67t-126 -38q4 -66 7 -121t7 -88l-233 -14q-2 37 -2 92v123q-88 10 -152.5 30.5t-107.5 43.5q-51 25 -86 55l47 115q45 -23 96 -43q43 -16 96.5 -34t108.5 -24l6 281q-72 -6 -139.5 -6t-121.5 21.5t-86 72.5t-28 149zM187.5 863.5 q-13.5 -27.5 2 -49t61.5 -34t136 -8.5q2 59 3 118t1 116q-45 -12 -88 -36t-72.5 -51.5t-43 -55zM571 641q4 -70 8.5 -136.5t8.5 -129.5q57 20 91 52t34 75q0 74 -40 103.5t-102 35.5z" />
<glyph unicode="%" horiz-adv-x="1302" d="M12 1094q8 76 39 125t74 76.5t93 39t93 11.5q59 0 105.5 -19.5t79 -53.5t52 -80t23.5 -97q6 -53 -8 -105.5t-47 -94.5t-85 -69.5t-122 -29.5q-70 -4 -128 14t-98 56t-58.5 94.5t-12.5 132.5zM111 1067q0 -41 19.5 -76t59.5 -57.5t99 -22.5q72 0 109.5 50.5t38.5 111 t-33.5 109.5t-108.5 47q-61 -2 -101 -25.5t-61.5 -59.5t-21.5 -77zM139 154q2 0 37 54t92.5 143t130 202t148.5 231.5t147.5 232t128 204t91 144.5t34.5 56t16.5 -8t39.5 -24q25 -16 57 -39q-213 -379 -379 -676q-72 -127 -139.5 -248t-120.5 -216t-85 -154l-32 -58l-27 24 q-26 25 -58 53.5t-57.5 53.5t-23.5 25zM686 418q8 76 39 125t74 76.5t93 39t93 11.5q59 0 105.5 -19.5t79 -53.5t52 -80t23.5 -97q6 -53 -8 -105.5t-47 -94.5t-85 -69.5t-122 -29.5q-70 -4 -128 14.5t-98 56t-58.5 94t-12.5 132.5zM784 391q0 -41 19.5 -75.5t60 -57 t99.5 -22.5q72 0 109.5 50t38.5 110.5t-34 109.5t-108 47q-61 -2 -101.5 -25.5t-62 -59.5t-21.5 -77z" />
<glyph unicode="&#x26;" horiz-adv-x="829" d="M10 926q-6 96 23.5 159.5t81 103.5t119 58.5t139.5 22.5q-4 25 -8.5 52.5t-7.5 50l-5 37.5t-2 17l213 -14l-3 -15q-3 -14 -9 -34.5t-13.5 -46t-13.5 -49.5q53 -4 100.5 -11.5t82 -14.5t55.5 -12l22 -5q2 0 -3 -13.5t-13 -29.5l-20 -41q-150 23 -269 14q-51 -4 -100 -15.5 t-87 -34t-62.5 -59t-26.5 -90.5q-2 -63 28.5 -100t77.5 -57.5t102.5 -26.5t102.5 -6t79 4t34 4t4 -20.5t5 -46t5 -46t4 -20.5t-28.5 -4t-75.5 -14.5t-97.5 -27.5t-96.5 -45t-70.5 -66t-18.5 -87q8 -57 47 -79.5t93.5 -24.5t115.5 11t112.5 30.5t84 31t30.5 13.5 q-4 -2 5.5 -17.5t19.5 -31.5l29 -45q-39 -16 -84 -33q-39 -14 -89.5 -29.5t-105.5 -25.5q8 -25 17.5 -56.5t16.5 -59.5t12 -47l5 -18l-213 -14q0 2 2 20.5t6.5 45t9.5 57.5t9 55q-49 0 -94 8.5t-82 32t-61.5 61t-30.5 97.5q-10 78 15.5 132t67.5 88t89 52.5t82 26.5 q-39 -4 -97.5 -3t-114 24.5t-97.5 75.5t-48 151z" />
<glyph unicode="'" horiz-adv-x="294" d="M43 1427l213 -14l-4 -42t-11.5 -103.5t-15.5 -134t-16 -134t-15 -102.5l-6 -41l-108 10q-10 156 -19 279q-4 51 -7 101t-6 90t-4 64.5t-1 26.5z" />
<glyph unicode="(" horiz-adv-x="507" d="M35 712.5q6 182.5 47 353.5t115.5 316.5t179.5 243.5l76 -153q-82 -82 -143.5 -202t-97.5 -260.5t-44 -290t17.5 -292.5t86 -270t162.5 -219l-63 -134q-123 96 -199 242t-109.5 314.5t-27.5 351z" />
<glyph unicode=")" horiz-adv-x="622" d="M51 -55q127 51 209 168.5t122 268t40 317.5t-40 318.5t-117 271.5t-187 177l112 179q129 -86 214 -237t125 -332t35 -377.5t-55 -375t-146.5 -320.5t-237.5 -216z" />
<glyph unicode="*" horiz-adv-x="1206" d="M12 727q49 2 107 6q49 4 115.5 8t142.5 9l-268 284q-2 2 27.5 25.5t65.5 51.5t68 51l31 22q20 -27 47 -60q23 -29 53.5 -65.5t67.5 -81.5l-16 280l227 -2v-25q0 -26 -1 -69t-2 -101.5t-1 -125.5q41 49 76.5 93t62.5 76t35 41l22 30q0 2 16.5 -8.5t39.5 -24.5 q25 -16 57 -39q-31 -43 -67 -96q-33 -45 -75 -104.5t-89 -125.5q76 4 141.5 8t114.5 9q57 4 106 8l4 -90q2 -35 4 -62.5t2 -25.5h-28q-29 0 -79 -1t-117.5 -2.5t-143.5 -1.5q55 -70 105 -131t89 -108q45 -55 82 -103l-53 -57q-20 -23 -36.5 -41t-16.5 -16q-35 37 -76 82 q-35 39 -83 88t-101 108q-2 -63 -3 -117.5t-2 -94.5t-3 -62l-1 -21q-4 2 -25.5 2t-47.5 -2q-31 -2 -68 -4q-4 33 -6 76q-4 37 -5 88t-5 113q-39 -55 -72 -101.5t-57.5 -81t-37.5 -53.5l-13 -20l-27 24q-27 25 -58.5 53.5t-57 53t-23.5 24.5l20 24q21 24 55.5 63.5t79.5 93 t95 114.5q-78 -2 -147 -3t-121 -2t-82 -1h-29l-2 20q-2 19 -5.5 41.5t-5.5 40.5z" />
<glyph unicode="+" horiz-adv-x="901" d="M12 829q37 2 80 7q37 4 87 8t108 10q-4 66 -9.5 136.5t-9.5 144.5l228 -2q0 -2 -1 -78t-6 -183q66 6 128.5 11.5t109.5 9.5q55 6 102 10l5 -90q2 -35 4 -62.5t2 -25.5h-30t-79 -1t-112.5 -2t-131.5 -3q-2 -72 -4 -138.5t-3 -117.5t-3 -82l-2 -31q-4 2 -25.5 2t-48.5 -2 q-31 -2 -67 -4q-6 43 -12 100q-4 47 -11.5 116t-13.5 153q-55 -2 -104.5 -3t-86 -2t-58.5 -1h-21l-2 19q-2 20 -5.5 42.5t-4.5 31.5z" />
<glyph unicode="," horiz-adv-x="364" d="M56 56.5q-5 25.5 14.5 57t62.5 62.5t77 32t57.5 -14.5t34.5 -41t11 -50.5q-18 -80 -41.5 -146.5t-68.5 -133.5l-56 4q16 41 22.5 90t2.5 84h-2q-51 -2 -80 14.5t-34 42z" />
<glyph unicode="-" horiz-adv-x="643" d="M25 731.5q0 16.5 2 38.5l4 57q154 20 276 35q51 6 101.5 12.5t89.5 10.5t50 5l36 3q0 -2 3 -28.5t6 -59.5t4 -60.5t-3 -29.5q-2 -2 -45 -2h-105.5h-135t-135 1t-104.5 1h-42q-2 0 -2 16.5z" />
<glyph unicode="." horiz-adv-x="364" d="M56 56.5q-5 25.5 14.5 57t62.5 62.5q45 31 81 31t59.5 -18.5t31.5 -49t-2 -61.5t-43 -53.5t-90 -24.5q-51 -2 -80 14.5t-34 42z" />
<glyph unicode="/" horiz-adv-x="956" d="M0 154q2 0 37 54t92 143t130 202t148.5 231.5t147.5 232t128 204t91 144.5t35 56t16.5 -8t38.5 -24q25 -16 58 -39q-213 -379 -379 -676q-72 -127 -139.5 -248t-121 -216t-84.5 -154l-32 -58l-26 24q-27 25 -59 53.5t-57.5 53.5t-23.5 25z" />
<glyph unicode="0" horiz-adv-x="1054" d="M4 752q29 240 112 389t191.5 217.5t229 58.5t222 -89t171 -224.5t76.5 -347.5q8 -254 -69 -422t-195.5 -251t-256 -81t-252 86t-182 250t-47.5 414zM143 664q-6 -152 36 -261.5t111.5 -170t152.5 -68.5t159 43t132.5 163.5t70.5 295.5q14 193 -32 319.5t-122 189 t-168 59.5t-171 -67.5t-128 -190.5t-41 -312z" />
<glyph unicode="1" horiz-adv-x="589" d="M8 1303l137 116l150 11q4 -63 10 -164t13.5 -218.5t14.5 -246.5t14 -250t13.5 -228.5t12.5 -181.5l180 -22l4 -58q2 -23 2 -39t-2 -16h-41h-102.5h-132h-131h-100.5h-40l1 28q1 27 3 60t4 60.5t2 29.5q18 -2 41 -4q20 -2 46 -5t57 -7l-17 1079l-98 -22z" />
<glyph unicode="2" horiz-adv-x="892" d="M23 -6q2 43 2 78v78l47 52t118.5 136t154.5 189.5t155 213.5q49 74 88 144.5t59.5 131t18.5 109t-33 76.5q-35 31 -73 39t-76 1t-74.5 -28.5t-69.5 -48.5q-78 -63 -154 -166q-39 23 -67 41q-27 16 -47.5 27.5t-24.5 11.5q4 6 38 49t88 97.5t125 107.5t149.5 78t162.5 8.5 t164 -100.5q63 -68 78.5 -138.5t-8 -152.5t-84 -178t-146.5 -215q-72 -96 -143.5 -184.5t-128.5 -156t-93 -108.5l-36 -41l598 80v-229z" />
<glyph unicode="3" horiz-adv-x="925" d="M6 1272q193 94 350 121q68 12 132.5 9t117.5 -28.5t90 -79t47 -143.5q10 -102 -17.5 -171t-73.5 -113t-97 -66.5t-88 -32.5q41 6 103.5 4t124 -30.5t107.5 -95t52 -191.5t-25.5 -208t-89 -133.5t-133.5 -73t-155.5 -27.5t-157.5 4.5t-138.5 20.5t-98.5 22.5t-40 11.5 q-4 0 3.5 16t15.5 37q8 23 22 55q164 -31 291 -20q55 4 107.5 19.5t93.5 44t67.5 75.5t28.5 115q2 80 -30.5 128t-83 74.5t-110 33.5t-111.5 7t-87 -5t-37 -5t-4 26.5t-5 58.5t-5 58.5t-4 26.5t30.5 5t82 18.5t105.5 36t103.5 56.5t76 82t20.5 111q-8 72 -51 101.5 t-101.5 33t-124 -14t-121 -39t-91.5 -40t-34 -16.5t-7 21.5t-19 41.5q-13 25 -31 58z" />
<glyph unicode="4" horiz-adv-x="1034" d="M16 465q0 16 2 39l5 57l602 858l149 11l47 -814q35 2 63.5 4.5t51.5 4.5q25 2 45 2q0 -2 1 -28t3 -56.5t4 -57t2 -28.5q-4 2 -34.5 1t-125.5 -5l21 -312l106 -22l5 -58q2 -23 2 -39t-2 -16h-36h-88.5h-113.5h-113.5h-87.5h-35l1 28q2 27 4 60t4 60.5t2 29.5q18 -2 41 -4 q20 -2 45.5 -5t56.5 -7l-4 276q-102 0 -212 1t-200 1t-149 2l-60 1q-2 0 -2 16zM168 565l469 39l-23 545z" />
<glyph unicode="5" horiz-adv-x="886" d="M16 72q-4 0 3.5 16t15.5 37q8 23 22 55q164 -31 291 -20q55 4 107.5 19.5t93.5 44t67.5 75.5t28.5 115q2 86 -36 138t-95 82t-126 41t-128 12t-100 -2t-45 -3q0 -14 -2 11.5t-7.5 77.5t-10.5 124t-12 150.5t-13.5 158.5t-12.5 148q53 6 113 12q51 4 114.5 10t131.5 15 l356 36l4 -90q2 -35 4 -62.5t2 -25.5l-50 -1t-127 -2t-167 -4t-168 -5l-30 -371q49 0 110.5 -2t126 -14t126 -37t111.5 -65.5t82.5 -102t37.5 -147.5q8 -166 -48.5 -262.5t-146.5 -143.5t-198.5 -56t-202 0t-157 23.5t-65.5 14.5z" />
<glyph unicode="6" horiz-adv-x="1138" d="M13.5 569.5q21.5 110.5 101.5 229.5l430 659l164 -104l-271 -357q184 27 323.5 -24t219.5 -153.5t94.5 -241t-47.5 -281.5q-39 -90 -119 -156.5t-178 -102.5t-204.5 -36t-196.5 41q-119 57 -198 139t-109.5 179.5t-9 208zM167 533.5q-5 -62.5 13.5 -123t63.5 -115.5 t123 -98q86 -47 172 -33t156.5 66.5t117.5 133t58.5 164.5t-21.5 161t-123 124q-70 37 -145.5 46t-147.5 -10.5t-133 -68.5t-102 -129q-27 -55 -32 -117.5z" />
<glyph unicode="7" horiz-adv-x="821" d="M20 1212l5 107q2 47 2 108l772 -75l-25 -58l-64 -152t-90.5 -216t-103.5 -248t-104.5 -249t-91 -217t-63.5 -154l-24 -60l-112 72l432 1132l-266 4q-117 2 -267 6z" />
<glyph unicode="8" horiz-adv-x="1118" d="M25.5 455q17.5 86 72 164.5t142.5 134.5q-84 43 -130.5 111.5t-55.5 144t16.5 152.5t86 138.5t156 99.5t224.5 38q109 -2 193.5 -38t143 -93.5t87 -129t25.5 -144t-40 -140.5t-110 -115q86 -49 137 -123.5t65.5 -159.5t-7 -170t-82 -156t-159 -117t-235.5 -50 q-158 -6 -266.5 32t-173 102.5t-86 148.5t-4 170zM172 401.5q-2 -65.5 36 -120t113.5 -90t192.5 -35.5q98 0 166 43t103.5 105.5t38.5 134t-28.5 130t-97 93t-168.5 24.5q-117 -12 -194.5 -56t-118.5 -103.5t-43 -125zM216 1080.5q-3 -56.5 22.5 -107.5t79 -90t135.5 -49 q25 4 51 7t55 3h22.5t22.5 -2q72 16 116 55t61.5 86t8 97t-43 93.5t-93 73t-143.5 33.5q-96 4 -159.5 -23.5t-97.5 -73.5t-37 -102.5z" />
<glyph unicode="9" horiz-adv-x="1124" d="M5 956.5q7 94.5 48 190.5q39 90 119 156.5t178.5 102.5t205 36t196.5 -41q119 -59 197.5 -140t109.5 -178.5t9.5 -208t-101.5 -229.5l-430 -659l-164 104l270 356q-123 -18 -226.5 0.5t-183 64.5t-133 114.5t-78 152.5t-17.5 178.5zM148.5 936q-11.5 -84 21.5 -161 t123 -124q70 -37 145.5 -46t147 10.5t133 68.5t102.5 129q27 55 32 117.5t-13.5 123t-64.5 116t-122 98.5q-88 47 -173 32.5t-155.5 -66.5t-117.5 -133t-58.5 -165z" />
<glyph unicode=":" horiz-adv-x="364" d="M55 72q2 20 17.5 44.5t44.5 47.5l16 12l12 8q4 4 7.5 5t7.5 4q16 8 24 10q4 0 5 1t6 1q8 2 22 2t21 -2q6 0 10 -2q27 -8 43 -33q4 -4 4 -6q10 -18 14 -43q0 -10 -1 -18.5t-3 -18.5l-12 -27l-12 -16l-9 -8l-20 -13l-10 -6q-8 -4 -13 -4q-27 -10 -59 -10h-19.5t-19.5 2 q-23 4 -35 8q-4 4 -8 5t-8 5q-29 18 -25 52zM56 771q-5 26 14.5 57.5t62.5 62.5q45 31 81 31t59.5 -18.5t31.5 -49.5t-2 -61.5t-43 -53t-90 -24.5q-51 -2 -80 14t-34 42z" />
<glyph unicode=";" horiz-adv-x="389" d="M56 56.5q5 -25.5 34 -42t80 -14.5h2q4 -35 -2 -84t-23 -90l56 -4q45 68 68.5 134.5t41.5 145.5q0 25 -11 50.5t-34.5 41t-57.5 14.5t-77 -32t-62.5 -62.5t-14.5 -57zM56 771q-5 26 14.5 57.5t62.5 62.5q45 31 81 31t59.5 -18.5t31.5 -49.5t-2 -61.5t-43 -53t-90 -24.5 q-51 -2 -80 14t-34 42z" />
<glyph unicode="&#x3c;" horiz-adv-x="702" d="M16 676l572 291q14 -37 26 -64q4 -12 10.5 -22.5t10.5 -20.5q6 -10 8 -20l-36 -22q-36 -21 -89 -53t-115.5 -69t-116 -68.5t-88.5 -53.5l-36 -21l36 -19q35 -18 90.5 -46.5t120 -61.5t120 -61.5t91.5 -48.5l37 -19q0 -2 -15 -41t-34 -86q-22 -55 -47 -125 q-152 98 -268 176q-51 33 -98.5 65.5t-85.5 57.5q-45 29 -84 55q-2 0 -2 42t-3 96z" />
<glyph unicode="=" horiz-adv-x="790" d="M25 608.5q0 16.5 2 38.5l4 58q195 20 348 34q66 6 128 12.5t111.5 10.5t63.5 5l45 3q0 -2 3 -28.5t6 -59.5t4 -60.5t-3 -29.5q-2 -2 -55 -2h-132h-170t-169 1t-131 1h-53q-2 0 -2 16.5zM25 833.5q0 16.5 2 38.5l4 58q195 20 348 35q66 6 128 12t111.5 10t63.5 5l45 3 q0 -2 3 -28.5t6 -59.5t4 -60.5t-3 -29.5q-2 -2 -55 -2h-132h-170t-169 1t-131 1h-53q-2 0 -2 16.5z" />
<glyph unicode="&#x3e;" horiz-adv-x="702" d="M16 297l37 19q37 20 92.5 48.5t120 61.5t119.5 61.5t91 46.5l36 19l-36 21q-36 22 -89 53.5t-115.5 68.5t-116 69t-89.5 53l-35 22l8 20q6 18 18 43q12 27 29 64l571 -291l-4 -139q-2 -27 -2 -51.5v-43.5q0 -23 -2 -43l-23 -15q-24 -15 -62 -41t-86 -57.5t-97 -64.5 q-116 -78 -268 -176q-27 70 -50 125q-18 47 -32.5 86t-14.5 41z" />
<glyph unicode="?" horiz-adv-x="804" d="M16 1337q190 63 349 72q66 4 131 -3t118.5 -31.5t90 -72t47.5 -120.5q10 -76 -4.5 -137.5t-45 -111.5t-73.5 -89t-88 -68q-109 -68 -254 -106l45 -336l-164 -47l-21 540q143 2 256 37q47 14 91.5 37t78 54.5t51 75.5t11.5 104q-6 57 -34 88.5t-70 43t-93 7.5t-102 -19 q-123 -33 -275 -110zM142 85q1 26 28 52.5t76 44.5q51 20 86 12t53 -31.5t19.5 -56t-17 -59.5t-55.5 -41t-92 -2q-51 10 -75 32.5t-23 48.5z" />
<glyph unicode="@" horiz-adv-x="1263" d="M9 474q-3 114 34 226.5t112.5 202.5t190.5 145.5t268 57.5q141 0 246 -48t174.5 -130t104.5 -188.5t35 -221.5t-35 -228.5t-105 -209.5q-41 -59 -89 -73.5t-92 8t-80 81t-50 146.5q-37 -29 -84 -47.5t-107 -20.5q-80 -4 -145 16.5t-110.5 63.5t-67 107.5t-12.5 150.5 q8 86 42.5 141.5t84 87t105.5 44t106 12.5q94 0 159 -41q-2 18 -3 36.5t-1 36.5l135 -2q-2 -4 -5 -48t-5 -109.5t-1 -146.5t6 -156.5t16.5 -139t29 -97.5t43 -26.5t62.5 70.5q47 86 62.5 185.5t1 195.5t-55.5 183t-102.5 149.5t-144.5 93.5t-179 16q-100 -16 -180 -66 t-134.5 -120t-84 -154t-29.5 -167.5t30.5 -160.5t94 -133.5t163 -86t236.5 -17.5l15 -137q-162 -27 -283 8t-203 111t-124 181t-45 219zM343 500.5q-1 -56.5 16.5 -105.5t54.5 -86t94 -43q59 0 101 33t63.5 82t22.5 106.5t-17.5 105.5t-59 78.5t-102.5 28.5q-57 4 -95 -23.5 t-57.5 -73.5t-20.5 -102.5z" />
<glyph unicode="A" horiz-adv-x="1142" d="M78 33l16 57q15 57 38.5 151.5t54 216.5t63.5 251q-2 12 -4 29.5l-4 35t-3 28.5l-1 11h10q4 0 11 1t17 3q29 115 54.5 221.5t46 187.5t31.5 130l12 49q-2 0 27.5 -1t69.5 -2t80 -3t60 -2l19 4q-2 -2 12 -45t40 -114t59.5 -164t70.5 -195q25 2 45.5 4t36.5 4q18 2 31 4 l4 -90q2 -35 4 -62.5t2 -25.5h-16q-8 0 -19.5 -1t-25.5 -1q43 -117 82.5 -227.5t72.5 -196.5q37 -100 72 -189q-59 -33 -105 -55q-41 -20 -72.5 -36.5t-31.5 -14.5l-20 62q-19 63 -49.5 164.5t-69.5 228.5t-80 258q-74 -4 -149.5 -6.5t-143.5 -4.5l-250 -702q-29 12 -51 20 q-18 8 -33.5 13.5t-13.5 3.5zM477 840l193 20l-86 279z" />
<glyph unicode="B" horiz-adv-x="1024" d="M9 1366v34q0 27 1 27q4 -2 25.5 -2t48.5 2q31 2 68 5l6 -109q43 18 106.5 43t133.5 40q72 15 144 17h11q65 -1 121 -21q60 -22 102.5 -77t52.5 -154q3 -26 2 -49q0 -50 -11 -91q-17 -60 -48 -103t-72 -71t-77 -44q42 8 93 8h20q62 -2 117.5 -33.5t95.5 -101.5t46 -192 q1 -20 1 -38q0 -118 -32 -196q-38 -90 -103.5 -140t-149.5 -68q-72 -15 -145 -14h-25q-86 3 -164 18.5t-131 29.5l6 -92h-109q-20 0 -38.5 -1t-34.5 -1h-33l-1 62q-1 61 -4 162t-6 230t-5.5 264.5t-5.5 264.5t-4 229.5t-2 161.5zM168 1192l25 -369q33 6 82 17.5t104 30 t110.5 44t97.5 59.5q43 34 67 77q20 35 19 76q0 10 -1 20q-10 83 -68 109q-48 22 -110 21q-14 0 -28 -1q-79 -6 -161 -32.5t-137 -51.5zM205 655l33 -448q41 -10 97 -18.5t116.5 -8.5t121 11.5t108.5 42t79 84t33 135.5v9q0 78 -32 125q-34 50 -88.5 75.5t-122.5 30.5 q-31 2 -62 2q-36 0 -72 -3q-66 -6 -123 -17t-88 -20z" />
<glyph unicode="C" horiz-adv-x="1150" d="M4 756q4 139 39 259t103.5 209t171 139t241.5 50q70 0 140.5 -12t137 -41t126 -77t106.5 -122l-125 -98q-61 86 -146 127t-175 43h-9q-79 0 -155 -33q-80 -35 -140.5 -106.5t-92.5 -177.5q-24 -81 -24 -183q0 -32 3 -67q12 -152 55 -249.5t106.5 -152.5t139.5 -76.5 t149 -21.5q131 0 215 64.5t129 172.5l119 -90q-41 -78 -97 -137t-123 -98t-142.5 -57.5t-151.5 -18.5q-115 2 -225.5 49t-195.5 141.5t-135 234.5q-45 125 -45 289q0 20 1 40z" />
<glyph unicode="D" horiz-adv-x="1019" d="M9 1366v34q0 27 1 27q4 -2 25.5 -2t48.5 2q31 2 68 5l2 -48q86 29 186 29q104 0 209.5 -18.5t193.5 -81t149.5 -181t78.5 -319.5q4 -49 4 -96q0 -131 -33 -243q-45 -150 -130 -256q-84 -106 -196 -162q-108 -55 -223 -54h-8q-72 0 -135 18l2 -26h-109q-20 0 -38.5 -1 t-34.5 -1h-33l-1 62q-1 61 -4 162t-6 230t-5.5 264.5t-5.5 264.5t-4 229.5t-2 161.5zM170 1159l66 -952q47 -23 98 -32t102 -9q98 0 171 48t122 126t73.5 179.5t28.5 205.5v28q1 123 -31 211q-36 98 -96.5 157t-139.5 85.5t-161 26.5h-12q-57 1 -111 -17q-60 -20 -110 -57z " />
<glyph unicode="E" horiz-adv-x="868" d="M18 1360q209 20 375 35q70 6 137.5 12t119.5 10t85 6l33 2q0 -2 2 -30.5t3 -62.5t1 -62.5t-4 -30.5t-66.5 -2t-153.5 1t-194.5 2t-185.5 3l27 -405q57 8 138 17t154.5 18.5t98.5 12.5l78 7q0 -2 3 -28.5t6 -59.5t4 -60.5t-3 -29.5t-55.5 -2h-124h-152.5h-139l37 -514 q8 2 36.5 3t71.5 2t94.5 2t104.5 3q123 2 274 6q-2 0 -2 -34t-2 -75q-2 -47 -2 -106h-776q0 -2 0 55.5t-1 152.5t-3 217t-4 250t-5 250t-5.5 218t-3.5 155.5t-1 61.5z" />
<glyph unicode="F" horiz-adv-x="811" d="M18 1360q209 20 375 35q70 6 137.5 12t119.5 10t85 6l33 2q0 -2 2 -30.5t3 -62.5t1 -62.5t-4 -30.5t-66.5 -2t-153.5 1t-194.5 2t-185.5 3l29 -405q57 8 138 17t153.5 18.5t97.5 12.5l78 7q0 -2 3 -28.5t6 -59.5t4 -60.5t-3 -29.5t-55.5 -2h-123h-151.5h-139l51 -713 h-217q0 -2 0 55.5t-1 152.5t-3 217t-4 250t-5 250t-5.5 218t-3.5 155.5t-1 61.5z" />
<glyph unicode="G" horiz-adv-x="1255" d="M4 752q12 186 66.5 319t137.5 213t184 110q70 21 142 21q33 0 66 -4q107 -14 209 -73.5t188 -159.5l-172 -127q-72 90 -150.5 135t-154.5 48h-11q-70 0 -133 -34q-67 -37 -119 -110.5t-83 -181t-31 -244.5q0 -154 53.5 -264.5t133.5 -170t175 -66.5q11 -1 22 -1 q83 0 158 46q85 52 146.5 164.5t75.5 293.5q0 10 1 22t1 23q-74 0 -146.5 1t-131 2t-95.5 1h-38q-2 0 -2 16.5t2 38.5l4 57q199 20 356 35q68 6 131.5 12.5t113.5 10.5t65 5l46 3q0 -2 2.5 -30.5t5.5 -61.5t4 -61v-15q0 -11 -1 -10q-2 -2 -34 -3t-83 -1q0 -178 -51 -312.5 t-132 -222.5t-185 -132q-96 -41 -196 -41h-14q-106 3 -206.5 50t-175 140.5t-115.5 232.5q-32 108 -32 244q0 40 3 82z" />
<glyph unicode="H" horiz-adv-x="987" d="M17 1367v33q0 27 1 27q4 -2 26 -2t48 2q31 2 68 5l42 -596q51 6 121 12t144 13t143.5 14.5t118.5 11.5l-8 551q59 -4 106 -6q41 -2 74 -4.5t35 -0.5l-2 -61t-5 -161.5t-7 -228.5t-9.5 -262t-9.5 -262t-8 -228.5t-7 -161t-5 -60.5q-4 2 -25.5 3t-48.5 1h-68l-10 705 h-117.5t-140.5 1t-141.5 1h-122.5l51 -709h-108q-20 0 -39 -1t-35 -1h-33l-1 62q-1 61 -4 161.5t-6 228.5t-5 262t-5.5 262t-4.5 228.5t-2 160.5z" />
<glyph unicode="I" horiz-adv-x="600" d="M4 1284q0 16 2 39l4 57q150 16 266 31q49 6 97.5 11t86.5 9.5t60 6.5l23 2q0 -2 3 -29t6 -59.5t4 -60t-3 -29.5q-2 -2 -24.5 -2h-58.5t-81 1t-94 1q4 -72 10 -164t13.5 -195.5t14.5 -210t14 -208t13.5 -189.5t12.5 -154l180 -22l4 -58q2 -23 2 -39t-2 -16h-41t-100.5 -1 t-129 -1h-131h-102.5t-43 2q-4 2 -3 29.5t4 60.5t6 59.5t3 28.5q18 -2 41 -4q20 -2 46 -5t57 -7q-2 70 -4 159t-4 188t-4 202.5t-4.5 202t-4.5 187.5t-2 157q-29 0 -53.5 1t-42.5 1q-23 0 -39 2q-2 0 -2 16z" />
<glyph unicode="J" horiz-adv-x="612" d="M-4 246q0 2 15.5 20.5t35 40t36.5 39.5l17 19q10 -4 25.5 -30t36 -53.5t48.5 -47.5q21 -14 46 -14q8 0 16 1q59 10 83 71.5t25 184.5v20q0 118 -10 293q-12 191 -20 459l-41 -8q-18 -4 -43 -6l-5 29q-5 30 -10 65t-9 64.5t-2 27.5l249 11l72 -947q4 -63 4 -122 q0 -29 -1 -58q-3 -86 -28.5 -151.5t-76.5 -106.5t-140 -43h-10q-66 0 -115 24q-53 27 -92 66t-64.5 81t-41.5 71z" />
<glyph unicode="K" horiz-adv-x="921" d="M8 1436l228 -2q0 -2 -1.5 -58.5t-2.5 -151t-2 -214t-3 -246.5q53 59 128 145t154 177.5t153.5 178.5t128.5 148l102 -94q-47 -59 -121 -154.5t-155.5 -202t-162.5 -210t-141 -179.5q27 -18 66 -45.5t84 -58.5t94 -63.5t96 -65.5q111 -76 232 -160l-140 -176 q-102 94 -198 182q-41 37 -84 77t-85 78t-79 73t-63 61l-13 -14q0 -96 -1 -179t-3 -145.5t-3 -97.5l-1 -35q-4 2 -25.5 2t-48.5 -2q-31 -2 -67 -4q-14 287 -25 555q-6 115 -11 235.5t-10 237.5t-10.5 221.5t-9.5 186.5z" />
<glyph unicode="L" horiz-adv-x="856" d="M12 1430l144 2l65 -1285l25 3q26 4 68 9t96.5 12t109.5 13l299 37q-2 0 -2 -33.5t-2 -74.5q-2 -47 -2 -107l-772 -6l-2 80q-2 80 -5 207t-6 286.5t-6.5 318.5t-6.5 301t-3 237z" />
<glyph unicode="M" horiz-adv-x="1312" d="M4 8q12 104 29 221q14 100 30.5 226.5t34.5 259.5q41 309 95 706l196 2l115 -393q20 -74 41.5 -144.5t38 -124.5t27 -88t12.5 -34l202 784h117h117l10 -61q10 -62 25.5 -162t36 -227t43.5 -260l114 -709q-68 -2 -121 -2h-125l-5 56q-5 55 -13 144t-18.5 203.5 t-20.5 234.5t-19.5 234.5t-17.5 203.5t-12 144l-4 54q-63 -244 -117 -432q-23 -82 -44 -160t-37.5 -138.5t-25.5 -97.5l-10 -36l-188 -15l-195 871l-86 -1268q-63 2 -112 4q-43 2 -78 2t-35 2z" />
<glyph unicode="N" horiz-adv-x="983" d="M4 8q2 104 6 221q4 100 8.5 226.5t8.5 259.5q10 309 24 706l197 2q143 -328 256 -585q49 -111 95 -215.5t83 -186.5t59.5 -132t24.5 -50l-82 1169h117h117v-63.5v-161.5t-1.5 -227t-2.5 -259t-2 -259t-2 -226.5t-2 -158.5l-1 -60l-188 4l-549 1125l59 -1137q-63 2 -112 4 q-43 2 -78 2t-35 2z" />
<glyph unicode="O" horiz-adv-x="1230" d="M4 752q16 201 77.5 328.5t149.5 201.5t194 102.5t210 28.5q139 0 241.5 -50t171 -139t103.5 -209t39 -259q1 -20 0 -40q0 -162 -44 -288q-50 -140 -135 -235t-195.5 -142t-225.5 -49h-10q-114 0 -220 45q-112 47 -197 140.5t-130 234.5q-33 104 -33 234q0 46 4 96z M143 664q4 -104 29 -195.5t74 -159t122 -105.5t171 -38q74 0 149.5 21.5t138 76.5t106.5 152.5t56 249.5q2 34 2 67q1 103 -23 183q-32 106 -92.5 177.5t-140.5 106.5q-76 33 -155 33h-9q-82 0 -160.5 -36t-139 -107.5t-96.5 -177.5q-32 -96 -32 -220v-28z" />
<glyph unicode="P" horiz-adv-x="868" d="M9 1366v34q0 27 1 27q4 -2 25.5 -2t48.5 2q31 2 68 5l8 -117q43 12 106.5 26.5t135.5 19.5q28 2 54 2l88 -5q72 -8 131.5 -40t101.5 -91.5t52 -157.5q3 -27 3 -52q0 -93 -36 -160q-44 -85 -130 -143.5t-204 -95t-249 -65.5l39 -559h-109q-20 0 -38.5 -1t-34.5 -1h-33 l-1 62q-1 61 -4 162t-6 230t-5.5 264.5t-5.5 264.5t-4 229.5t-2 161.5zM168 1178l33 -455q49 8 133 30.5t162 60.5q76 38 130 95q47 50 47 115q0 10 -1 20q-10 82 -68.5 119t-136.5 44q-29 3 -58 3q-50 0 -102 -8q-82 -12 -139 -24z" />
<glyph unicode="Q" horiz-adv-x="1236" d="M0 756q4 139 39 259t103.5 209t171 139t241.5 50q104 0 209.5 -28.5t194 -102.5t149.5 -202t78 -328q4 -49 4 -95q0 -138 -36 -245q-48 -144 -140 -238q41 -29 78.5 -54.5t66.5 -43.5q33 -23 60 -41l-140 -176q-29 27 -65 59q-31 29 -71 64.5t-83 76.5q-123 -57 -251 -57 h-9q-115 2 -225.5 49t-195.5 141.5t-135 234.5q-45 125 -45 289q0 20 1 40zM201 666q12 -152 55 -249.5t106.5 -152.5t139.5 -76.5t149 -21.5q49 0 84 8q-47 43 -89 83t-74.5 69.5t-51 48t-16.5 18.5t17.5 12.5t32.5 25.5t31.5 24.5t14.5 9.5t24.5 -20.5t66.5 -47 t95.5 -65.5t108.5 -76q72 66 109.5 172.5t42.5 235.5v28q0 124 -32 220q-36 106 -96.5 177.5t-139.5 107.5t-161 36h-9q-79 0 -155 -33q-79 -35 -139.5 -106.5t-92.5 -177.5q-24 -80 -24 -179q0 -34 3 -71z" />
<glyph unicode="R" horiz-adv-x="909" d="M9 1366v34q0 27 1 27q4 -2 25.5 -2t48.5 2q31 2 68 5l8 -117q43 12 106.5 26.5t135.5 19.5q28 2 54 2l88 -5q72 -8 131.5 -40t101.5 -91.5t52 -157.5q3 -28 3 -55q0 -80 -28 -140q-36 -80 -106.5 -137t-171 -95t-215.5 -67q27 -18 65 -44.5t83 -58.5t94 -65.5t96 -66.5 q111 -76 236 -160l-140 -176q-113 102 -213 197q-43 39 -88 81t-87 80.5t-78.5 71.5t-61.5 58l35 -498h-109q-20 0 -38.5 -1t-34.5 -1h-33l-1 62q-1 61 -4 162t-6 230t-5.5 264.5t-5.5 264.5t-4 229.5t-2 161.5zM168 1178l33 -455q49 8 133 30.5t162 60.5q76 38 130 95 q47 50 47 115q0 10 -1 20q-10 82 -68.5 119t-136.5 44q-29 3 -58 3q-50 0 -102 -8q-82 -12 -139 -24z" />
<glyph unicode="S" horiz-adv-x="970" d="M2 1010q2 63 35 133.5t89 130t133 100.5t167 45q29 1 56 1q101 0 172 -18q91 -22 145.5 -51.5t78.5 -54.5l23 -26l-21 -30q-20 -30 -46.5 -64.5t-48 -63.5t-21.5 -27t-21.5 23.5t-63.5 46.5q-41 25 -101 45q-47 16 -104 15q-14 0 -30 -1q-49 -2 -95 -28.5t-79.5 -66.5 t-49.5 -87q-9 -27 -8 -54q0 -19 4 -36q11 -43 55 -78t130 -49q61 -10 153.5 -27.5t177.5 -61.5t145.5 -124t60.5 -215q0 -137 -58.5 -216t-141.5 -118t-172 -47q-59 -5 -107 -5q-24 0 -45 1q-98 6 -172 28.5t-123 45.5q-57 27 -96 59l47 176q57 -45 118 -82 q53 -31 116 -56.5t122 -25.5q68 0 127 17.5t103 48.5t70 72t30 88q1 15 1 29q0 70 -25 114q-30 53 -83 84t-122.5 46.5t-142.5 28.5t-143.5 30.5t-124.5 52.5t-86 94q-28 52 -28 136v22z" />
<glyph unicode="T" horiz-adv-x="919" d="M4 1265.5q0 16.5 2 39.5l4 57q242 16 430 31q80 6 158 11t138.5 9t97.5 6l36 2q0 -2 3.5 -28.5t6.5 -59.5t4 -61v-9q0 -18 -3 -20q-2 -2 -32 -2h-80t-114.5 1t-134.5 1q6 -84 13.5 -193.5t15.5 -229.5t16 -242.5t15.5 -231t13.5 -197t10 -139.5l-233 -14q-1 41 -1 96v60 q1 94 3 206.5t4 235.5t4 241.5t4 224t2 183.5q-74 0 -142.5 1t-121.5 2t-85 2l-32 1q-2 0 -2 16.5z" />
<glyph unicode="U" horiz-adv-x="1134" d="M37 492v72.5t1 163.5t1 211t1 214t2 173t3 89l164 -2q-2 -9 -3 -77v-76v-90q1 -98 2 -213t2 -213.5t2 -167t1 -76.5q10 -156 95 -233q76 -69 234 -69q18 0 38 1q84 4 138 44t87 109.5t45 163.5t12 205v86t-1 123.5t-2 141.5t-2 139.5t-2 119.5t-3 80l227 -2q1 0 1 -27 v-34q-1 -62 -2 -163.5t-3 -231.5t-4 -265t-4 -264t-4 -230.5t-3 -163.5l-1 -61q-4 2 -25.5 2t-48.5 -2q-31 -2 -67 -4q0 18 -3 41q-2 20 -4 48t-4 63q-59 -49 -137 -80t-176 -35q-21 -1 -41 -1q-99 1 -185 25q-102 30 -175.5 91t-114.5 155.5t-41 219.5z" />
<glyph unicode="V" horiz-adv-x="1228" d="M2 1319q70 29 123 51q47 20 85 36.5t40 16.5l18 -51q19 -51 48.5 -136t67.5 -192.5t77 -220t75.5 -220t66.5 -191.5t47 -136l18 -51l17 53q17 52 45 137t62.5 192.5t72.5 220t74 221t63.5 193.5t45.5 136l17 52q10 -4 20 -9q10 -4 21.5 -9t23.5 -9q29 -10 64 -25 l-399 -1376h-140q-53 0 -95 -1h-23q-19 0 -19 1l-258 660q-113 290 -258 657z" />
<glyph unicode="W" horiz-adv-x="1638" d="M-2 1319q72 29 127 51q47 20 87 36.5t42 16.5l16 -55q17 -55 41.5 -144t56 -204t64.5 -234.5t63.5 -234.5t55 -204t39.5 -143l16 -54q43 242 78 432q14 80 28.5 157.5t24.5 139.5q12 72 25 135l188 14l195 -870l250 1267q61 -12 112 -20q20 -4 41 -7t37 -7q18 -4 35 -9 l-16 -60q-15 -60 -39.5 -156.5t-56 -220.5t-64.5 -253l-176 -688l-197 -2q-63 219 -115 391q-23 74 -43 144.5t-36.5 126t-27.5 88.5l-11 34l-125 -784h-117q-45 0 -81 -1h-20q-16 0 -16 1l-241 660q-106 291 -240 657z" />
<glyph unicode="X" horiz-adv-x="1146" d="M2 1274q-2 2 27.5 25.5t65.5 51t68 49.5l32 23l133 -190q59 -86 137 -196.5t162 -227.5q74 115 143.5 224.5t123.5 195.5t87 138t33 54t16.5 -8t38.5 -24q25 -16 57 -39q-57 -104 -122 -220q-55 -98 -126 -223t-143 -254q76 -109 143.5 -205t120.5 -172q61 -88 115 -163 l-53 -58q-20 -23 -36.5 -41t-16.5 -16l-30 39t-81 103.5t-118.5 150.5t-143.5 182q-55 -98 -103.5 -184t-84 -150.5t-55.5 -102.5l-21 -38l-27 24q-27 25 -58.5 53.5t-57 53.5t-23.5 25l25 38q26 37 68 102.5t97.5 151.5t116.5 183z" />
<glyph unicode="Y" horiz-adv-x="1148" d="M2 1274q-2 2 27.5 25.5t65.5 51t68 49.5l32 23q78 -115 155 -227q66 -96 139.5 -202.5t133.5 -192.5q74 117 144.5 227.5t125.5 197.5t88 140t33 55t16.5 -8t38.5 -24q25 -16 57 -39q-63 -111 -131 -232q-59 -104 -131.5 -234t-146.5 -263l59 -619h-108q-20 0 -39 -1 t-35 -1h-33v30v81.5v115v132t1 131t1 110.5z" />
<glyph unicode="Z" horiz-adv-x="978" d="M16 1423l40 -2t103.5 -5t145.5 -6t166 -7q199 -8 449 -19l18 -133q-199 -309 -354 -551q-66 -102 -129.5 -201.5t-112.5 -176t-79 -122.5t-27 -46q2 0 51 5t122.5 12t159.5 15.5t160 15.5t124 11l50 4q2 0 3 -35t3 -77t3 -76.5t1 -32.5l-65 1q-66 1 -163 1h-211h-211 h-162.5t-65.5 2t-1 19.5t-3 39.5q-2 25 -2 58l352 557q66 104 129 204.5t113.5 178.5t80.5 125l31 47q0 -2 -51 -6t-129 -10.5t-168 -13.5t-168 -12t-129 -9t-49 -2t-3 40.5t-10 85.5q-6 46 -10 84q-3 26 -3 33q0 4 1 4z" />
<glyph unicode="[" horiz-adv-x="434" d="M18 1565q84 20 152 34q57 12 105.5 22.5t48.5 8.5t2 -30.5t3 -62.5t1 -62.5t-4 -30.5q-2 0 -2 -2q-4 2 -37 3t-131 3l71 -1475q16 4 42 5.5t50 5.5q29 2 60 6q-2 0 -2 -34t-2 -75q-2 -47 -2 -106h-332q0 -2 0 73.5t-1 201.5t-3 286t-4 327.5t-5 329.5t-5.5 288t-3.5 204 t-1 80z" />
<glyph unicode="\" horiz-adv-x="1136" d="M2 1274q-2 2 27.5 25.5t65.5 51t68 49.5l32 23l143 -204q66 -92 148.5 -210t168.5 -241l459 -655l-53 -58q-20 -23 -36.5 -41t-16.5 -16l-43 56q-43 55 -114 144t-160 203.5t-183 233.5t-184.5 233.5t-162 204.5t-114.5 145.5t-45 55.5z" />
<glyph unicode="]" horiz-adv-x="413" d="M6 -55q31 -4 60 -6q25 -4 50 -5.5t42 -5.5l71 1549q-96 -2 -129.5 -3t-40.5 -4v3q-4 2 -4 26.5t1 53t3 52t2 25.5t47.5 -8t104.5 -23q68 -14 154 -34q0 -2 -1 -80t-3.5 -204t-5.5 -288t-5 -329.5t-4 -327.5t-3 -286t-1 -201.5t0 -73.5h-332q0 47 -2 84z" />
<glyph unicode="^" horiz-adv-x="962" d="M2 907q104 147 186 262q35 49 69 96.5t59.5 84t41.5 59.5l17 23h137h139l271 -582q-35 -16 -64 -27l-65 -24l-21 35q-20 36 -50 91.5t-64.5 119t-65.5 118t-50 91.5l-20 36l-20 -36q-19 -35 -49.5 -89.5t-65.5 -118t-64.5 -118t-50.5 -90.5l-22 -35q-2 0 -40 15.5 t-85 35.5z" />
<glyph unicode="_" horiz-adv-x="874" d="M25 -6.5q0 16.5 2 39.5l4 57q211 20 379 35q70 6 138 12t121.5 10.5t70.5 5.5l48 3q0 -2 3.5 -29t6.5 -59.5t4 -60t-3 -30.5q-2 -2 -60.5 -2h-143.5h-184.5t-184.5 1t-142 1h-57q-2 0 -2 16.5z" />
<glyph unicode="`" horiz-adv-x="516" d="M12 1364l140 176q90 -98 157 -176q29 -33 56.5 -64.5t49 -56t33.5 -39.5l13 -14q-2 0 -17.5 -12.5t-33 -25.5t-31.5 -24.5t-14 -9.5l-15 12q-16 11 -40.5 28.5t-56.5 40t-65 44.5q-78 53 -176 121z" />
<glyph unicode="a" d="M2 559q12 141 70.5 232.5t139.5 143.5t173 72.5t174 20.5q150 0 260 -70l-6 123l227 -2q0 -2 -1 -50t-2 -126t-2 -178t-3 -203.5t-3 -203t-3 -177.5t-3 -125t-3 -47q-4 2 -25.5 2t-48.5 -2q-31 -2 -67 -4q0 18 -2 41q-2 20 -4.5 47t-4.5 62q-59 -49 -137 -79t-176 -34 q-20 -1 -39 -1q-108 1 -200 29q-108 34 -182 104q-76 72 -110 178q-26 79 -25 177q0 34 3 70zM144 504q0 -89 39 -167q40 -79 123 -130t208 -51q98 0 167 54t103.5 134t37.5 173v17q0 84 -28 156q-30 80 -96 131q-64 49 -162 49h-8q-127 -4 -211 -58t-128 -133 q-45 -80 -45 -175z" />
<glyph unicode="b" horiz-adv-x="1122" d="M9 1367v33q0 27 1 27q4 -2 25.5 -2t48.5 2q31 2 68 5l36 -537q43 37 93.5 62.5t102.5 41t104.5 22.5t101.5 7q111 0 196.5 -36t147 -99.5t96.5 -148.5t45 -181q2 -23 2 -47q1 -74 -19 -148q-26 -98 -87.5 -177.5t-157.5 -131t-227 -57.5h-29q-184 0 -311 70l6 -70h-109 q-20 0 -38.5 -1t-34.5 -1h-33l-1 62q-1 61 -4 161.5t-6 228.5t-5.5 262t-5.5 263t-4 229.5t-2 160.5zM207 651l22 -344q45 -65 123 -109q75 -42 183 -42h10q98 0 166.5 54t103.5 134t38 173v17q1 84 -27 156q-30 80 -98 131q-64 49 -161 49h-8q-137 -4 -225 -66.5 t-127 -152.5z" />
<glyph unicode="c" horiz-adv-x="987" d="M-8 463q-3 27 -3 54q-1 71 19 141q26 98 88 177.5t158 131t227 57.5q18 1 36 1q131 0 223 -40q106 -45 178 -141l-127 -99q-47 55 -106.5 90t-162.5 35q-98 0 -166.5 -54t-103.5 -134t-38 -173q0 -8 -1 -17q1 -84 29 -156q30 -80 97 -131q64 -49 161 -49h8q104 4 181 42 t124 97l135 -84q-43 -61 -99 -102t-119.5 -66t-128 -35t-124.5 -10q-111 0 -196.5 36t-147 99.5t-97.5 148.5t-44 181z" />
<glyph unicode="d" d="M2 559q12 141 70.5 232.5t139.5 143.5t173 72.5t174 20.5q158 0 272 -76q-6 139 -13 265t-11 219l227 -2q0 -2 -1 -65.5t-2 -167t-2 -234.5t-3 -268.5t-3 -268.5t-3 -233.5t-3 -165t-3 -62.5q-4 2 -25.5 2t-48.5 -2q-31 -2 -68 -4q-2 18 -2 41q-2 20 -2 47t-2 62 q-59 -49 -136 -79t-175 -34q-20 -1 -39 -1q-108 1 -200 29q-108 34 -182 104q-76 72 -110 178q-26 79 -25 177q0 34 3 70zM144 504q0 -89 39 -167q40 -79 123 -130t208 -51q98 0 167 54t103.5 134t37.5 173v17q0 84 -28 156q-30 80 -96 131q-64 49 -162 49h-8 q-127 -4 -211 -58t-128 -133q-45 -80 -45 -175z" />
<glyph unicode="e" horiz-adv-x="1083" d="M2 559q12 141 70.5 232.5t139.5 143.5t173 72.5t174 20.5q111 0 196 -35t146.5 -97t97 -146t48.5 -179q0 -2 -64.5 -9t-163 -17t-212 -21.5t-211 -23t-163 -18.5t-65.5 -9q4 -61 25.5 -119.5t63.5 -102.5t105.5 -69.5t151.5 -25.5q84 0 149.5 48t104.5 109l197 -82 q-59 -88 -164 -155.5t-246 -73.5q-20 -1 -39 -1q-108 1 -200 29q-108 34 -182 104q-76 72 -110 178q-26 79 -25 177q0 34 3 70zM182 612l287 50q53 8 104.5 17t90 15t62.5 10l24 5q-10 57 -76 99q-63 40 -162 40h-10q-139 -4 -221 -66.5t-99 -169.5z" />
<glyph unicode="f" horiz-adv-x="665" d="M4 854q0 16 2 39l4 57h10q4 0 25 4q-2 32 -2 64q0 57 7 110q11 82 44 145.5t89.5 101.5t142.5 42h10q64 0 114 -25q54 -26 93 -65t64.5 -81t41.5 -70q0 -2 -15.5 -20.5t-34.5 -40t-37 -39.5l-17 -19q-10 4 -25.5 29.5t-36 53t-47.5 46.5q-22 15 -47 15q-8 0 -16 -1 q-47 -10 -75 -65.5t-42 -153.5q55 6 110.5 13t98.5 12.5t57 6.5l41 3q0 -2 3 -28.5t6 -59.5t4.5 -60.5t-3.5 -29.5q-2 -2 -32.5 -3t-76.5 -1t-103.5 1t-114.5 1q-5 -87 -5 -191q0 -78 3 -166q6 -205 14 -461l-141 -20l-64 838h-33q-8 0 -14 2q-2 0 -2 16z" />
<glyph unicode="g" d="M2 559q12 141 70.5 232.5t139.5 143.5t173 72.5t174 20.5q66 0 122 -13.5t103 -35.5q33 4 79 11t89 13.5t73 11.5t32 5t7 -33t10 -70.5t9 -70.5l4 -33q-2 0 -45 6t-92 15q41 -57 63.5 -126t30.5 -145q2 -23 2 -47q0 -74 -20 -148q-25 -98 -86 -176.5t-157.5 -131 t-227.5 -58.5q-80 -4 -164 -5t-137 -6q-57 -5 -57 -22q0 -15 77 -45q76 23 159 32t159 9q111 0 191.5 -19.5t136 -53t85 -79.5t39.5 -98q2 -15 2 -30q0 -38 -14 -75q-20 -52 -75.5 -94t-146.5 -71t-222 -31q-23 -1 -46 -1q-104 0 -192 15q-108 19 -183 57t-109 95 q-26 43 -26 95q0 19 3 38q8 61 55 111q-49 33 -66 76q-11 26 -11 51q0 16 5 32q11 40 51 71.5t109 41.5q-98 70 -144 186q-35 88 -35 204q0 35 3 73zM144 504q0 -90 39 -167q40 -79 123 -130t208 -51q98 0 167 54t103.5 134t37.5 173v17q0 83 -28 156q-30 80 -96 131 q-64 49 -162 49h-8q-125 -4 -210 -58t-129 -133q-45 -81 -45 -175zM266 -394q45 -34 114 -51.5t148 -18.5h8q75 0 140 18q67 20 113.5 60t46.5 103q0 49 -45.5 79t-114.5 41q-48 8 -101 8q-24 0 -49 -2q-80 -5 -148.5 -25.5t-114.5 -53.5q-44 -33 -44 -75q0 -47 47 -83z" />
<glyph unicode="h" horiz-adv-x="1103" d="M9 1367v33q0 27 1 27q4 -2 25.5 -2t48.5 2q31 2 68 5l34 -500q58 40 146 68q77 25 181 24h30q125 -4 211 -48t143 -116t90 -161t48.5 -183t17.5 -184q1 -36 1 -69q0 -50 -2 -93q-3 -72 -7.5 -118t-0.5 -52l-264 -4q28 190 28 350q0 52 -3 100q-6 84 -23.5 164 t-52.5 141.5t-92 97.5q-51 32 -123 32h-16q-104 -6 -178 -58.5t-119 -111.5l51 -709h-109q-20 0 -38.5 -1t-34.5 -1h-33l-1 62q-1 61 -4 161.5t-6 228.5t-5.5 262t-5.5 263t-4 229.5t-2 160.5z" />
<glyph unicode="i" horiz-adv-x="434" d="M4 1024q0 -2 2 -31.5t4 -65.5t5 -67l3 -31l18 1q17 1 36.5 4.5t35.5 4.5l17 1q10 -154 16 -305.5t11 -274.5q6 -143 8 -270q37 2 67 4q27 2 48.5 2t25.5 -2q2 0 4 75.5t5 190.5t5 248t5.5 248.5t4.5 192.5t1 79zM62 1142q-1 6 -1 11q-1 21 15 46q20 32 63 63q44 31 80 31 l1 -1q36 0 60 -18q23 -20 31 -50q4 -14 3 -27q0 -17 -5 -33q-10 -30 -43 -53.5t-90 -25.5h-11q-43 1 -69 15q-28 16 -34 42z" />
<glyph unicode="j" horiz-adv-x="391" d="M-229 -317q0 2 15 20t34.5 39.5t37.5 39.5l17 19q10 -4 25.5 -29.5t36 -53t47.5 -46.5q22 -15 47 -15q8 0 16 1q59 10 83 96t25 238v24q0 144 -11 341q-11 214 -19 483q-2 0 -14.5 -2t-28.5 -7q-18 -4 -41 -6l-5 30t-10.5 64.5t-9.5 64.5t-2 28l250 10l72 -1100 q4 -63 4 -122q0 -29 -1 -58q-3 -86 -28.5 -151.5t-77 -106.5t-139.5 -43h-10q-66 0 -115 25q-53 26 -92 65t-64.5 81t-41.5 71zM18 1142q-2 5 -2 11q0 21 16 46q19 32 62 63q44 31 80 31l1 -1q36 0 59.5 -18.5t31.5 -49.5q4 -13 4 -27q0 -17 -6 -33q-10 -31 -43 -54t-90 -25 h-11q-43 0 -68 15q-29 16 -34 42z" />
<glyph unicode="k" horiz-adv-x="921" d="M8 1436l228 -2q0 -2 -1.5 -63.5t-2.5 -163t-2 -229.5t-3 -261q39 23 93.5 52.5t113 63t114.5 65.5t101 58.5t73 43t28 18.5t9 -17.5t19 -44.5q12 -29 31 -65q-82 -61 -164 -121q-70 -51 -150.5 -110.5t-148.5 -108.5q61 -45 153.5 -107.5t178.5 -121.5q100 -68 207 -142 l-140 -176q-102 94 -198 182q-41 37 -84 77t-84 78t-78 71.5t-65 60.5q-4 -4 -13 -8q0 -96 -1 -180t-3 -146.5t-3 -98.5l-1 -36q-4 2 -25.5 2t-48.5 -2q-31 -2 -67 -4q-14 287 -25 555q-6 115 -11 235.5t-10 237.5t-10.5 221.5t-9.5 186.5z" />
<glyph unicode="l" horiz-adv-x="378" d="M12 1430l144 2l86 -1233q16 4 32.5 5t28.5 5q14 2 29 6q-2 0 -2 -34t-2 -75q-2 -47 -2 -106h-285l-2 80t-5 207t-6 286.5t-6.5 318.5t-6.5 301t-3 237z" />
<glyph unicode="m" horiz-adv-x="1533" d="M23 1005q0 44 2 44q4 -2 25.5 -2t47.5 2q31 2 68 4l14 -193q25 27 59.5 56.5t83 54t109 41t137.5 18.5q59 0 103.5 -30.5t75.5 -84.5q43 35 97 64t148 45q38 6 73 6q64 0 116 -22q80 -34 134 -100t88 -158.5t52.5 -191.5t25.5 -196.5t9 -176.5q1 -53 1 -92v-37 q-1 -50 3 -56l-264 -4q20 184 20 341q0 52 -2 101q-4 82 -15 163t-35.5 144.5t-63.5 102.5t-97 41h-10q-90 0 -139 -34q-51 -36 -84 -83q27 -100 39 -217t15 -227q2 -66 2 -123q0 -39 -1 -74q-2 -88 -2 -131q0 -4 -26.5 -3t-57.5 3q-37 2 -84 6q2 207 3 368v16 q1 150 -17 254q-18 110 -65 166q-44 54 -132 54h-6q-55 -2 -100 -31.5t-80 -71.5t-57.5 -85t-34.5 -70l51 -604h-109q-20 0 -38.5 -1t-34.5 -1h-33l-1 45t-2 119t-3 168t-3 193.5t-2 193.5t-2 168t-1 118z" />
<glyph unicode="n" horiz-adv-x="1103" d="M23 1005q0 44 2 44q4 -2 25.5 -2t47.5 2q31 2 68 4l10 -127q60 42 150 72q80 27 188 26h29q125 -4 211 -48t143 -116t90 -161t48.5 -183t17.5 -184q1 -36 1 -69q0 -50 -2 -93q-3 -72 -7.5 -118t-0.5 -52l-264 -4q28 190 28 350q0 52 -3 100q-6 84 -23.5 164t-52.5 141.5 t-92 97.5q-51 32 -123 32h-16q-53 -4 -99.5 -20.5t-84.5 -42t-67.5 -55.5t-51.5 -61l57 -700h-109q-20 0 -38.5 -1t-34.5 -1h-33l-1 45t-2 119t-3 168t-3 193.5t-2 193.5t-2 168t-1 118z" />
<glyph unicode="o" horiz-adv-x="1089" d="M2 559q12 141 70.5 232.5t139.5 143.5t173 72.5t174 20.5q111 0 197 -36t147.5 -99.5t96 -148.5t44.5 -181q2 -23 2 -47q0 -74 -20 -148q-26 -98 -86.5 -177.5t-157 -131t-227.5 -57.5q-20 -1 -39 -1q-108 1 -200 29q-108 34 -182 104q-76 72 -110 178q-26 79 -25 177 q0 34 3 70zM144 504q0 -89 39 -167q40 -79 123 -130t208 -51q98 0 167 54t103.5 134t37.5 173v17q0 84 -28 156q-30 80 -96 131q-64 49 -162 49h-8q-127 -4 -211 -58t-128 -133q-45 -80 -45 -175z" />
<glyph unicode="p" horiz-adv-x="1099" d="M25 -410q0 2 1 65.5t2 167t2 234.5t3 268.5t3 268.5t3 233.5t3 165t3 62.5q4 -2 25.5 -2t48.5 2q31 2 67 4v-41q0 -20 1 -47t3 -62q59 49 137.5 79t176.5 34q20 1 39 1q108 0 199 -29q108 -33 182.5 -104t109.5 -178q26 -79 26 -177q0 -34 -3 -70q-12 -141 -70.5 -232.5 t-139.5 -143.5t-173 -72.5t-174 -20.5q-158 0 -273 74q6 -137 12.5 -263t12.5 -219zM236 507v-19q0 -82 28 -154q31 -80 98 -131q63 -49 160 -49h8q125 2 210 57t129 134q45 81 45 176q0 89 -38 166q-40 79 -123 130t-208 51q-98 0 -167 -54t-103.5 -134t-38.5 -173z" />
<glyph unicode="q" horiz-adv-x="1083" d="M4 465q-3 36 -3 70q0 98 25 177q35 107 110 178t182 104q92 29 200 29q19 0 39 -1q98 -4 175 -34t136 -79q2 35 2 61.5t2 47.5q0 23 2 41q37 -2 68 -4q27 -2 48.5 -2t25.5 2q2 0 3 -62.5t3 -165t3 -233.5t3 -268.5t3 -268.5t2 -234.5t2 -167t1 -65.5l-227 -2q4 94 11 219 t14 265q-115 -76 -273 -76q-82 0 -174 20.5t-173 72.5t-139.5 143.5t-70.5 232.5zM192 345q44 -79 127.5 -134t210.5 -57h8q97 0 161 49q67 51 97 131q28 73 28 156v17q-3 93 -37.5 173t-103.5 134t-167 54q-125 0 -208 -51t-123 -130q-39 -77 -39 -167q0 -94 46 -175z" />
<glyph unicode="r" horiz-adv-x="743" d="M8 1042l238 7l-6 -115q35 27 78.5 51.5t93.5 34.5q21 4 41 4q39 0 75 -12q56 -18 101 -45q53 -33 100 -76l-86 -86l-86 -86l-17 19q-16 20 -40.5 43.5t-54 43t-56.5 19.5q-47 0 -89 -35t-71 -70q-6 -135 -9 -267t-5 -236q-2 -123 -4 -232q-39 -2 -72 -2q-29 -2 -51 -2 t-27 -2q-2 0 -4 44t-6 116.5t-9 167t-9 191.5t-9.5 191.5t-8.5 168t-5 118.5t-2 47z" />
<glyph unicode="s" horiz-adv-x="972" d="M2 668q2 63 35 124.5t89 109.5t133 79t167 35q29 1 56 2q101 0 172 -18q91 -22 145.5 -52t78.5 -56l23 -26l-21 -30q-20 -29 -46.5 -64t-48 -63.5t-21.5 -26.5t-21.5 23.5t-63.5 46.5q-41 24 -101 44q-49 16 -109 16q-12 0 -25 -1q-49 -2 -101 -23.5t-93 -51t-62.5 -62.5 t-9.5 -58.5t64 -39.5q34 -9 90 -10q31 0 69 3q63 3 147 15q40 6 78 6q42 0 84 -6q78 -12 136.5 -62.5t73.5 -167.5q2 -20 2 -39q0 -83 -44 -141q-54 -70 -136 -110q-83 -38 -174 -52q-70 -10 -124 -11q-16 0 -30 1q-98 6 -172 28.5t-123 45.5q-57 27 -96 59l47 115 q57 -29 118 -51q53 -20 116 -36t122 -16t110.5 11.5t88.5 31t58.5 47t21.5 60.5q0 66 -31 95.5t-81 38.5q-35 6 -76 6q-19 0 -39 -1q-64 -4 -130 -8q-44 -3 -88 -3q-22 0 -42 1q-64 2 -114 24q-50 23 -78 74q-25 45 -24 122v22z" />
<glyph unicode="t" horiz-adv-x="559" d="M-2 950q2 0 38 4t91 13l-16 288l227 -2q0 -2 -1 -73.5t-3 -184.5q39 4 74.5 10.5t62.5 10.5q31 6 57 8l4 -90q2 -35 4.5 -62.5t2.5 -25.5h-17q-16 0 -44.5 -1t-66.5 -2t-79 -3q-2 -92 -3 -189.5t-2 -190.5t-2 -177t-2 -146.5t-3 -99.5l-3 -37q-4 2 -25.5 2t-47.5 -2 q-31 -2 -68 -4q-4 127 -12 266q-6 119 -14.5 267.5t-16.5 301.5q-53 -2 -87 -3t-34 1l-2 19q-2 20 -5 42.5t-4 31.5z" />
<glyph unicode="u" d="M18 492v43.5t1 93t1 120t1.5 123t2.5 102.5t3 60l163 -2q-2 -8 -3 -48t-1 -96.5t1 -122t2 -121.5t3 -96t3 -48q8 -72 31.5 -129.5t67.5 -97.5t110 -59q54 -16 126 -16q15 0 31 1q84 4 138.5 46t87 111.5t45 162.5t12.5 202q-6 92 -6 160.5t-4 148.5l227 -2q1 0 1 -20v-25 q-1 -45 -2 -120t-3 -170t-4 -194.5t-4 -194.5t-4.5 -170t-3.5 -120l-1 -45q-4 2 -25.5 2t-47.5 -2q-31 -2 -68 -4q0 18 -2 41q-2 20 -4 48t-4 63q-59 -49 -137 -80t-177 -35q-21 -1 -41 -1q-99 1 -184 25q-102 30 -176 91t-115 155.5t-41 219.5z" />
<glyph unicode="v" horiz-adv-x="933" d="M2 915q70 29 123 52q47 20 85 36.5t40 16.5l22 -60q21 -59 51.5 -147t65.5 -191.5t64.5 -191.5t50.5 -146l20 -59l20 59q19 60 49 149t64.5 192.5t64.5 191.5t50 147l21 60l20 -8t21.5 -9.5t23.5 -9.5q29 -10 64 -24l-271 -971h-139q-53 0 -95 -1h-23q-19 0 -19 1 q-29 68 -60 143q-27 66 -59.5 147t-67.5 167q-82 200 -186 456z" />
<glyph unicode="w" horiz-adv-x="1458" d="M2 915q72 29 127 52q47 20 87 36.5t42 16.5l12 -38q11 -38 28 -98.5t39.5 -139t45.5 -160.5t44.5 -160t38.5 -139.5t28 -98.5l10 -36q41 166 71 296q12 55 24.5 108.5t23.5 94.5q10 49 22 94l189 15l208 -600l175 862q61 -12 112 -21q20 -4 41 -7t37 -7q18 -4 35 -8 l-12 -42q-13 -42 -32.5 -110.5t-44 -155.5t-50.5 -180q-61 -215 -138 -485l-196 -2q-68 143 -121 256q-23 49 -45.5 95t-41 82t-29.5 59l-11 22l-111 -514h-116q-45 0 -81 -1h-20q-16 0 -16 1q-29 68 -60 143q-27 66 -60.5 147t-68.5 167q-82 201 -186 456z" />
<glyph unicode="x" horiz-adv-x="954" d="M8 870q-2 2 28 26t65.5 51.5t67.5 50.5l32 22q39 -49 86 -107q41 -49 92 -112.5t108 -134.5q57 68 108.5 129t90.5 108t62.5 76t23.5 31t16.5 -8.5l38.5 -24.5q25 -16 58 -39q-41 -57 -88 -125q-41 -57 -92.5 -130t-108.5 -153q66 -80 126 -154.5t107 -133.5 q55 -68 105 -129l-53 -58q-20 -23 -37 -41t-17 -16l-29 30q-28 31 -76 82.5t-110.5 118t-130.5 140.5q-53 -74 -100 -141.5t-83 -119t-56 -80.5l-21 -30l-27 24q-26 25 -58 53.5t-57.5 53.5t-23.5 25l25 28q26 29 67 77t94.5 111.5t110.5 133.5q-68 72 -129 138.5 t-109 116.5t-77 81z" />
<glyph unicode="y" horiz-adv-x="1206" d="M6 842q-2 2 27.5 25.5t65.5 51t68 49.5l32 23q82 -131 161 -258q33 -55 70 -114.5t74 -118t70.5 -113.5t64.5 -102q66 141 130.5 275t113.5 239q57 123 110 233l32 -18q32 -19 70 -40.5t68.5 -40t28.5 -18.5t-37 -62t-91 -164.5t-128 -233.5t-146.5 -268.5t-146.5 -269.5 t-128 -234.5t-90 -166t-34 -65.5q0 -1 -1 -1q-4 0 -16 8q-18 12 -40 26q-25 16 -55 39l276 583z" />
<glyph unicode="z" horiz-adv-x="968" d="M16 1014l40 -2t103.5 -5t145.5 -6.5t166 -7.5q199 -8 449 -18l18 -182q-176 -180 -313 -322q-59 -59 -114.5 -116.5t-98.5 -102.5t-70 -71.5t-25 -26.5t45.5 5t109 12t140 15.5t139 15.5t107.5 11t45 4t3 -35t3 -77t3 -76.5t1 -32.5l-65 1q-66 1 -163 1h-211h-211h-162.5 t-65.5 2t-1 27.5t-3 56.5q-2 37 -2 82q201 184 358 328q68 61 131.5 119.5t114.5 104.5t81 74l31 27q0 -2 -52 -6t-131 -10t-170 -13.5t-170 -12.5t-131 -9t-50 -2t-3 41t-10 85q-6 46 -10 84q-3 26 -3 34q0 4 1 4z" />
<glyph unicode="{" horiz-adv-x="581" d="M0 887l6 108q61 16 88 41t33 57.5t-3 72.5t-21.5 88.5t-21.5 103.5t-3 119q4 45 35.5 79.5t75.5 60t94.5 44t94.5 30t73.5 16.5t33.5 5t7.5 -30.5t7.5 -65.5l4 -94q-59 8 -109 8q-41 0 -78.5 -9.5t-48.5 -31.5q-6 -16 5.5 -53t27.5 -86.5t28.5 -106.5t9.5 -112.5 t-30.5 -104.5t-91.5 -82q102 -70 141 -146.5t40 -159.5t-26.5 -170t-57 -177t-52 -181.5t-12.5 -179.5q4 -47 44 -58t85 -5q53 8 119 33l20 -211q-113 -2 -203 16q-39 8 -75.5 20.5t-67.5 32t-51.5 46t-24.5 63.5q-12 111 4.5 223.5t40 217t42 198.5t11 170t-50.5 131 t-143 80z" />
<glyph unicode="|" horiz-adv-x="468" d="M91 1392.5q-1 137.5 1 202.5l234 -14q-4 -41 -8.5 -128t-10.5 -202.5t-12 -252t-12.5 -278.5t-13.5 -282.5t-12 -261.5t-10 -216t-9 -148l-129 10q2 68 -0.5 207t-4.5 315t-5 368.5t-5 367.5t-3 312.5z" />
<glyph unicode="}" horiz-adv-x="581" d="M4 -311l21 211q66 -25 118 -33q45 -6 84 5t45 58q10 88 -12 179.5t-52 181.5t-57.5 177t-26.5 170t40 159.5t141 146.5q-63 33 -91 82t-31 104.5t9.5 112.5t29 106.5t27.5 86.5t5 53q-10 23 -48 32t-79 9q-49 0 -109 -8q0 53 5 94q2 35 6 65.5t8 30.5q2 0 32.5 -5 t74.5 -16.5t94.5 -30t94.5 -44t75.5 -60t35.5 -79.5q6 -63 -3 -118.5t-21 -104t-21.5 -88.5t-3.5 -72.5t33 -57t88 -41.5l6 -108q-100 -27 -143 -81t-50 -130t11 -170t42 -198.5t40 -217.5t4 -223q-4 -37 -24.5 -63.5t-51.5 -46t-67.5 -32t-75.5 -20.5q-90 -18 -203 -16z " />
<glyph unicode="~" horiz-adv-x="677" d="M10 702q-4 -2 3 16.5t22.5 47.5t37 62.5t46 62.5t49.5 47t47 16q33 -4 65.5 -26.5t62.5 -49t53.5 -46t35.5 -17.5t31.5 25.5t36.5 52.5q20 33 41 72l104 -56q-29 -63 -59 -114q-27 -45 -57.5 -83t-61.5 -46q-47 -12 -79 -1t-56.5 29.5t-46 33.5t-45.5 13 q-25 -4 -44.5 -20t-31.5 -35q-16 -23 -27 -49l-57 37q-23 14 -43.5 23t-26.5 5z" />
<glyph unicode="&#xa1;" horiz-adv-x="468" d="M92 10l2 49t7.5 128t11.5 180.5t12 207t12.5 207.5t11.5 181t8 128t3 51l129 -10l1 -49q1 -49 3 -128t5 -181.5t6 -208t7.5 -207.5t7.5 -182t5 -129t2 -52zM113 1285.5q-8 30.5 2 61.5t43 53.5t90 24.5q51 2 80 -14.5t34 -42t-14.5 -57t-62.5 -62.5q-45 -31 -81 -31 t-59.5 18.5t-31.5 49z" />
<glyph unicode="&#xa2;" horiz-adv-x="987" d="M-2 647q-8 88 12.5 176t69.5 164t126 131.5t183 77.5q-2 104 -3 167.5t-1 68.5l233 -15q-4 -35 -7 -90t-7 -123q104 -12 182 -56t138 -120l-127 -98q-39 45 -85 77.5t-118 43.5q-6 -82 -11 -172.5t-10.5 -181.5t-10.5 -182t-11 -173q92 10 158.5 46t109.5 91l135 -84 q-37 -55 -86 -93t-103 -62.5t-110.5 -38t-111.5 -17.5l-13 -188l-129 10v180q-90 12 -161.5 53.5t-121.5 102.5t-81 139t-39 166zM219 678q0 -70 20.5 -133.5t60.5 -112.5t101 -74l-8 662q-57 -33 -96 -87t-58.5 -119.5t-19.5 -135.5z" />
<glyph unicode="&#xa3;" horiz-adv-x="905" d="M2 725q0 16 2 39l4 57q8 0 17 2q8 0 19 1t26 3q14 215 76.5 360.5t162 199t230.5 3t284 -228.5l-125 -98q-96 113 -176 149.5t-136 6t-89 -126t-37 -246.5q74 8 153 15t143.5 13.5t106.5 9.5l42 3q0 -2 3 -29t6 -59.5t4 -60t-3 -29.5q-2 -2 -45 -3t-108.5 -1t-144.5 1 t-155 1l4 -41q16 -221 64.5 -343t116 -151t147.5 30.5t160 200.5l118 -90q-74 -117 -152.5 -188.5t-157.5 -101t-152.5 -17.5t-135.5 62q-45 -49 -102 -72t-137 -27l-31 117q45 -12 76 -6t49 23.5t28.5 41t14.5 45.5q-51 92 -80 221.5t-29 295.5h-40q-8 0 -19 2q-2 0 -2 16z " />
<glyph unicode="&#xa4;" horiz-adv-x="1261" d="M0 1274q-2 2 27.5 25.5t65.5 51t68 49.5l32 23q27 -37 59 -84q29 -41 65.5 -94t83.5 -119q72 35 149.5 49.5t149.5 16.5q88 0 166 -25q63 102 104.5 167t41.5 67t16 -8.5t39 -24.5q25 -16 57 -39q-16 -27 -37 -63q-16 -31 -39.5 -74t-52.5 -94q84 -63 132.5 -159.5 t58.5 -211.5q10 -127 -36 -250t-151 -205q25 -37 45.5 -65.5t36.5 -50.5l31 -43l-53 -58q-20 -23 -36.5 -41t-16.5 -16q-20 23 -43 53q-20 25 -48 60.5t-63 81.5q-68 -23 -156 -27q-115 -6 -211 18q-27 -47 -47 -84t-37 -65q-18 -33 -32 -58l-27 25t-58.5 53.5t-57 53 t-23.5 24.5t27.5 39t68.5 104q-86 72 -128 182.5t-28 264.5q8 82 31 145.5t57 112.5zM286 672q-1 -92 39 -171t122.5 -130.5t207.5 -51.5q98 0 167 54.5t104 134.5t38 173t-28 173t-97.5 131t-168.5 49q-127 -4 -211 -58t-128 -133t-45 -171z" />
<glyph unicode="&#xa5;" horiz-adv-x="1148" d="M2 1274q-2 2 27.5 25.5t65.5 51t68 49.5l32 23q78 -115 155 -227q66 -96 139.5 -202.5t133.5 -192.5q74 117 144.5 227.5t125.5 197.5t88 140t33 55t16.5 -8t38.5 -24q25 -16 57 -39q-63 -111 -131 -232q-59 -104 -131.5 -234t-146.5 -263l4 -39q55 6 105.5 10t88 8 t59.5 5l23 1q0 -2 3.5 -28.5t6.5 -59.5t4 -60.5t-3 -29.5q-4 -4 -84 -4h-189l8 -86q51 6 97.5 10t81 7t44.5 3l31 2q0 -2 3.5 -28.5t6.5 -59t4 -60.5t-3 -30q-2 0 -22.5 -1t-54.5 -2t-78 -1h-93l16 -176h-108q-20 0 -39 -1t-35 -1h-33v180q-106 0 -184 1t-80 1t-2 16.5 t2 39.5l4 57q37 4 78 8q35 4 82 8t100 11v104q-106 0 -184 1t-80 1t-2 16.5t2 38.5l4 58q37 4 78 8q35 4 83 8t101 10v33q-37 45 -93 112.5t-117.5 142.5t-124 148.5t-112.5 134t-82 97.5t-32 39z" />
<glyph unicode="&#xa6;" horiz-adv-x="468" d="M91 1429.5q-1 110.5 1 165.5l234 -14q-4 -47 -9.5 -153.5t-12.5 -247t-14 -303t-16 -324.5h-172q-2 160 -5 321.5t-4 303t-2 252zM104 465l166 10q-4 -109 -9 -211t-9 -188t-8 -154.5t-6 -109.5l-129 10v104.5v149.5t-1.5 183t-3.5 206z" />
<glyph unicode="&#xa7;" horiz-adv-x="995" d="M2 688q2 41 16.5 89t36.5 93q-27 29 -41 75t-12 112q2 63 35 127.5t89 117t133 86t167 37.5q137 6 228 -16.5t145.5 -52t78.5 -54.5l23 -26l-21 -30q-20 -29 -46.5 -64t-48 -63.5t-21.5 -26.5t-21.5 23.5t-63.5 46t-101.5 44t-133.5 15.5q-49 -2 -101 -24.5t-93 -55.5 t-62.5 -68t-9.5 -63.5t64.5 -44t158.5 -7.5q63 4 146.5 8.5t162 -15t137 -76t73.5 -173.5q6 -61 -9.5 -110t-48.5 -88q23 -29 37 -65t21 -85q12 -109 -41.5 -179.5t-136.5 -110t-174 -53t-154 -9.5q-98 6 -172 28.5t-123 45.5q-57 27 -96 59l47 115q57 -29 118 -51 q53 -20 116 -36t122 -16t110.5 11.5t88.5 31t58.5 47t21.5 60.5q0 66 -31 96.5t-81 41.5t-114.5 8t-131 -5t-130 2t-113 29t-78 76t-24.5 143zM176 651q10 -33 62.5 -51t162.5 -10q59 4 137 11t152 -5q15 24 15 49q0 76 -42 107.5t-106.5 40t-143.5 4.5t-155 0 q-43 -35 -67.5 -74t-14.5 -72z" />
<glyph unicode="&#xa8;" horiz-adv-x="641" d="M5 1264.5q-5 25.5 14.5 57t62.5 62.5q45 31 81 31t59.5 -18.5t31.5 -49t-2 -61.5t-43 -53.5t-90 -24.5q-51 -2 -80 14.5t-34 42zM333 1264.5q-5 25.5 14.5 57t62.5 62.5q45 31 80.5 31t59 -18.5t32 -49t-2 -61.5t-43 -53.5t-90.5 -24.5q-51 -2 -79.5 14.5t-33.5 42z" />
<glyph unicode="&#xad;" horiz-adv-x="643" d="M25 731.5q0 16.5 2 38.5l4 57q154 20 276 35q51 6 101.5 12.5t89.5 10.5t50 5l36 3q0 -2 3 -28.5t6 -59.5t4 -60.5t-3 -29.5q-2 -2 -45 -2h-105.5h-135t-135 1t-104.5 1h-42q-2 0 -2 16.5z" />
<glyph unicode="&#xaf;" horiz-adv-x="634" d="M6 1261.5q0 16.5 2 38.5l4 58q154 20 277 35q51 6 101 12t89 10t51 5l35 3q0 -2 3 -28.5t6.5 -59t4.5 -60.5t-4 -30q-2 -2 -45 -2h-105.5h-135t-135 1t-104.5 1h-42q-2 0 -2 16.5z" />
<glyph unicode="&#xb4;" horiz-adv-x="532" d="M18 1190q-2 0 10.5 14.5t34 39t50 56t57.5 64.5q68 78 158 176l139 -176q-98 -68 -176 -121q-33 -23 -64.5 -45t-56.5 -39.5t-32 -23.5l-23 -17q0 -2 -14.5 9.5t-32 24.5t-33 25.5t-17.5 12.5z" />
<glyph unicode="&#xb5;" horiz-adv-x="1155" d="M14 1034l8 -1q7 -1 28.5 -1h60.5h104q-2 -8 -3 -48t-1 -96.5t1 -122t2 -121.5t2 -96t3 -48q8 -72 31.5 -129.5t67.5 -97.5t110 -59t158 -15q84 4 138 46t87 111.5t45 162.5t12 202q-6 92 -6 160.5t-4 148.5l227 -2q2 0 1 -45t-2 -120t-3 -170t-4 -194.5t-4 -194.5 t-4 -170t-3 -120l-1 -45q-4 2 -25.5 2t-48.5 -2q-31 -2 -67 -4q-2 39 -6 76q-4 33 -7.5 71t-5.5 72q-74 -88 -163 -131t-181 -50t-183 20.5t-167 80.5l4 -729h-156q-12 461 -20 826q-4 156 -8 304t-7.5 266t-6.5 189.5t-3 73.5z" />
<glyph unicode="&#xb7;" horiz-adv-x="358" d="M56 771q-5 26 14.5 57.5t62.5 62.5q45 31 81 31t59.5 -18.5t31.5 -49.5t-2 -61.5t-43 -53t-90 -24.5q-51 -2 -80 14t-34 42z" />
<glyph unicode="&#xb8;" horiz-adv-x="495" d="M10 -350q57 -8 105 -4q41 4 73.5 17t36.5 48q2 35 -26.5 51.5t-65.5 24.5q-43 8 -98 8q8 74 16 133q6 51 11.5 92.5t9.5 45.5q2 2 23.5 2t43.5 -2q27 -2 62 -7l6 -172q61 2 112 -18q43 -16 80 -59t41 -127q2 -43 -15 -71t-47 -45.5t-69 -24.5t-80 -7q-96 -4 -219 23v92z " />
<glyph unicode="&#xbf;" horiz-adv-x="804" d="M10 233q-10 76 4.5 137.5t45 111.5t73.5 89t88 68q109 68 254 106l-45 336l164 47l21 -540q-143 -2 -256 -37q-47 -14 -91.5 -37t-78 -54.5t-51 -75.5t-11.5 -104q6 -57 34 -88.5t70 -43t93 -7.5t102 19q123 33 275 110l45 -192q-190 -63 -349 -72q-66 -4 -131 3 t-118.5 31.5t-90 72t-47.5 120.5zM357.5 1308.5q-1.5 32.5 17 59.5t55.5 41t92 2q51 -10 75 -32.5t23 -48.5t-28 -52.5t-76 -44.5q-51 -20 -86 -12t-53 31.5t-19.5 56z" />
<glyph unicode="&#xc0;" horiz-adv-x="1142" d="M78 33l16 57q15 57 38.5 151.5t54 216.5t63.5 251q-2 12 -4 29.5l-4 35t-3 28.5l-1 11h10q4 0 11 1t17 3q29 115 54.5 221.5t46 187.5t31.5 130l12 49q-2 0 27.5 -1t69.5 -2t80 -3t60 -2l19 4q-2 -2 12 -45t40 -114t59.5 -164t70.5 -195q25 2 45.5 4t36.5 4q18 2 31 4 l4 -90q2 -35 4 -62.5t2 -25.5h-16q-8 0 -19.5 -1t-25.5 -1q43 -117 82.5 -227.5t72.5 -196.5q37 -100 72 -189q-59 -33 -105 -55q-41 -20 -72.5 -36.5t-31.5 -14.5l-20 62q-19 63 -49.5 164.5t-69.5 228.5t-80 258q-74 -4 -149.5 -6.5t-143.5 -4.5l-250 -702q-29 12 -51 20 q-18 8 -33.5 13.5t-13.5 3.5zM344 1774l140 176q90 -98 157 -176q29 -33 56.5 -64.5t49 -56t33.5 -39.5l13 -14q-2 0 -17.5 -12.5t-33 -25.5t-31.5 -24.5t-14 -9.5l-15 12q-16 11 -40.5 28.5t-56.5 40t-65 44.5q-78 53 -176 121zM477 840l193 20l-86 279z" />
<glyph unicode="&#xc1;" horiz-adv-x="1142" d="M78 33l16 57q15 57 38.5 151.5t54 216.5t63.5 251q-2 12 -4 29.5l-4 35t-3 28.5l-1 11h10q4 0 11 1t17 3q29 115 54.5 221.5t46 187.5t31.5 130l12 49q-2 0 27.5 -1t69.5 -2t80 -3t60 -2l19 4q-2 -2 12 -45t40 -114t59.5 -164t70.5 -195q25 2 45.5 4t36.5 4q18 2 31 4 l4 -90q2 -35 4 -62.5t2 -25.5h-16q-8 0 -19.5 -1t-25.5 -1q43 -117 82.5 -227.5t72.5 -196.5q37 -100 72 -189q-59 -33 -105 -55q-41 -20 -72.5 -36.5t-31.5 -14.5l-20 62q-19 63 -49.5 164.5t-69.5 228.5t-80 258q-74 -4 -149.5 -6.5t-143.5 -4.5l-250 -702q-29 12 -51 20 q-18 8 -33.5 13.5t-13.5 3.5zM350 1600q-2 0 10.5 14.5t34 39t50 56t57.5 64.5q68 78 158 176l139 -176q-98 -68 -176 -121q-33 -23 -64.5 -45t-56.5 -39.5t-32 -23.5l-23 -17q0 -2 -14.5 9.5t-32 24.5t-33 25.5t-17.5 12.5zM477 840l193 20l-86 279z" />
<glyph unicode="&#xc2;" horiz-adv-x="1142" d="M78 33l16 57q15 57 38.5 151.5t54 216.5t63.5 251q-2 12 -4 29.5l-4 35t-3 28.5l-1 11h10q4 0 11 1t17 3q29 115 54.5 221.5t46 187.5t31.5 130l12 49q-2 0 27.5 -1t69.5 -2t80 -3t60 -2l19 4q-2 -2 12 -45t40 -114t59.5 -164t70.5 -195q25 2 45.5 4t36.5 4q18 2 31 4 l4 -90q2 -35 4 -62.5t2 -25.5h-16q-8 0 -19.5 -1t-25.5 -1q43 -117 82.5 -227.5t72.5 -196.5q37 -100 72 -189q-59 -33 -105 -55q-41 -20 -72.5 -36.5t-31.5 -14.5l-20 62q-19 63 -49.5 164.5t-69.5 228.5t-80 258q-74 -4 -149.5 -6.5t-143.5 -4.5l-250 -702q-29 12 -51 20 q-18 8 -33.5 13.5t-13.5 3.5zM264 1620q66 90 119 162q23 31 44 59.5t37.5 52t27.5 38.5l10 14h215l162 -358l-50 -21q-10 -4 -18 -6t-16 -6t-17 -6l-82 143q-31 53 -55.5 97t-24.5 46l-11 -21q-11 -22 -29.5 -54.5t-39 -71.5t-38 -71.5t-29.5 -55.5l-12 -23q-2 0 -33 12.5 t-66 28.5zM477 840l193 20l-86 279z" />
<glyph unicode="&#xc3;" horiz-adv-x="1142" d="M78 33l16 57q15 57 38.5 151.5t54 216.5t63.5 251q-2 12 -4 29.5l-4 35t-3 28.5l-1 11h10q4 0 11 1t17 3q29 115 54.5 221.5t46 187.5t31.5 130l12 49q-2 0 27.5 -1t69.5 -2t80 -3t60 -2l19 4q-2 -2 12 -45t40 -114t59.5 -164t70.5 -195q25 2 45.5 4t36.5 4q18 2 31 4 l4 -90q2 -35 4 -62.5t2 -25.5h-16q-8 0 -19.5 -1t-25.5 -1q43 -117 82.5 -227.5t72.5 -196.5q37 -100 72 -189q-59 -33 -105 -55q-41 -20 -72.5 -36.5t-31.5 -14.5l-20 62q-19 63 -49.5 164.5t-69.5 228.5t-80 258q-74 -4 -149.5 -6.5t-143.5 -4.5l-250 -702q-29 12 -51 20 q-18 8 -33.5 13.5t-13.5 3.5zM293 1631q-4 -2 1 16t18.5 47t33 62.5t41 62.5t45 47.5t46.5 16.5q33 -4 62.5 -27t55 -49.5t46 -46t32.5 -17.5t27.5 25.5t30.5 52.5q16 33 30 72l105 -56q-25 -63 -49 -114q-23 -45 -50.5 -83t-58.5 -46q-47 -12 -75.5 -1t-49 29.5t-39 34 t-43.5 13.5q-25 -4 -40 -20.5t-25 -35.5q-10 -23 -17 -49l-57 37q-23 14 -43.5 23.5t-26.5 5.5zM477 840l193 20l-86 279z" />
<glyph unicode="&#xc4;" horiz-adv-x="1142" d="M78 33l16 57q15 57 38.5 151.5t54 216.5t63.5 251q-2 12 -4 29.5l-4 35t-3 28.5l-1 11h10q4 0 11 1t17 3q29 115 54.5 221.5t46 187.5t31.5 130l12 49q-2 0 27.5 -1t69.5 -2t80 -3t60 -2l19 4q-2 -2 12 -45t40 -114t59.5 -164t70.5 -195q25 2 45.5 4t36.5 4q18 2 31 4 l4 -90q2 -35 4 -62.5t2 -25.5h-16q-8 0 -19.5 -1t-25.5 -1q43 -117 82.5 -227.5t72.5 -196.5q37 -100 72 -189q-59 -33 -105 -55q-41 -20 -72.5 -36.5t-31.5 -14.5l-20 62q-19 63 -49.5 164.5t-69.5 228.5t-80 258q-74 -4 -149.5 -6.5t-143.5 -4.5l-250 -702q-29 12 -51 20 q-18 8 -33.5 13.5t-13.5 3.5zM255 1674.5q-5 25.5 14.5 57t62.5 62.5q45 31 81 31t59.5 -18.5t31.5 -49t-2 -61.5t-43 -53.5t-90 -24.5q-51 -2 -80 14.5t-34 42zM477 840l193 20l-86 279zM583 1674.5q-5 25.5 14.5 57t62.5 62.5q45 31 80.5 31t59 -18.5t32 -49t-2 -61.5 t-43 -53.5t-90.5 -24.5q-51 -2 -79.5 14.5t-33.5 42z" />
<glyph unicode="&#xc5;" horiz-adv-x="1142" d="M78 33l16 57q15 57 38.5 151.5t54 216.5t63.5 251q-2 12 -4 29.5l-4 35t-3 28.5l-1 11h10q4 0 11 1t17 3q29 115 54.5 221.5t46 187.5t31.5 130l12 49q-2 0 27.5 -1t69.5 -2t80 -3t60 -2l19 4q-2 -2 12 -45t40 -114t59.5 -164t70.5 -195q25 2 45.5 4t36.5 4q18 2 31 4 l4 -90q2 -35 4 -62.5t2 -25.5h-16q-8 0 -19.5 -1t-25.5 -1q43 -117 82.5 -227.5t72.5 -196.5q37 -100 72 -189q-59 -33 -105 -55q-41 -20 -72.5 -36.5t-31.5 -14.5l-20 62q-19 63 -49.5 164.5t-69.5 228.5t-80 258q-74 -4 -149.5 -6.5t-143.5 -4.5l-250 -702q-29 12 -51 20 q-18 8 -33.5 13.5t-13.5 3.5zM247 1643q-11 53 30 119.5t133 132.5q96 68 173 66.5t127 -40t67.5 -104.5t-6 -129.5t-92 -110.5t-191.5 -51q-109 -4 -169.5 30t-71.5 87zM368 1674.5q5 -25.5 33.5 -42t80.5 -14.5q57 2 90 24.5t43 53.5t2 61.5t-31.5 49t-59.5 18.5t-81 -31 q-43 -31 -62.5 -62.5t-14.5 -57zM477 840l193 20l-86 279z" />
<glyph unicode="&#xc6;" horiz-adv-x="1351" d="M78 33l16 57q15 57 38.5 152.5t54 217.5t63.5 249q-2 12 -4 29.5t-4 33.5t-3 28l-1 13h10h11t17 2q29 115 54.5 221.5t46 188.5t31.5 131l12 49q-2 0 38 -1t88 -4t88 -6t38 -5q70 6 172 16t198.5 19.5t165.5 15.5l68 6q0 -2 2 -31t3 -62.5t1 -62t-4 -30.5t-57.5 -2.5 t-133 1t-173 2.5t-175.5 3l27 -406q90 8 174 15.5t150 13.5q78 8 145 12l4 -90q2 -35 4 -62.5t2 -25.5l-40 -1t-105.5 -2t-149.5 -4t-174 -5l35 -510q8 2 32.5 3t59.5 2t78 2t86 3q100 2 223 6q-2 0 -2 -34t-2 -75q-2 -47 -2 -106h-674q0 -2 0 58.5t-2 159.5t-4 225t-4 259 l-174 -6l-250 -700q-29 12 -51 20q-18 8 -33.5 13.5t-13.5 3.5zM475 834l123 10l-6 319z" />
<glyph unicode="&#xc7;" horiz-adv-x="1150" d="M4 756q4 139 39 259t103.5 209t171 139t241.5 50q70 0 140.5 -12t137 -41t126 -77t106.5 -122l-125 -98q-61 86 -146 127t-175 43q-84 2 -164 -33t-140.5 -106.5t-92 -178t-21.5 -249.5q12 -152 55 -249.5t106.5 -152.5t139.5 -76.5t149 -21.5q131 0 215 64.5t129 172.5 l119 -90q-76 -147 -203 -224t-270 -87l4 -115q61 2 113 -18q43 -16 80 -59t41 -127q2 -43 -15.5 -71t-47 -45.5t-68.5 -24.5t-80 -7q-96 -4 -219 23v92q57 -8 104 -4q41 4 74 17t37 48q2 35 -27 51.5t-66 24.5q-43 8 -98 8q4 41 10 80q4 35 8.5 72t8.5 65 q-102 18 -194.5 74.5t-162 149t-109.5 222.5t-34 298z" />
<glyph unicode="&#xc8;" horiz-adv-x="868" d="M18 1360q209 20 375 35q70 6 137.5 12t119.5 10t85 6l33 2q0 -2 2 -30.5t3 -62.5t1 -62.5t-4 -30.5t-66.5 -2t-153.5 1t-194.5 2t-185.5 3l27 -405q57 8 138 17t154.5 18.5t98.5 12.5l78 7q0 -2 3 -28.5t6 -59.5t4 -60.5t-3 -29.5t-55.5 -2h-124h-152.5h-139l37 -514 q8 2 36.5 3t71.5 2t94.5 2t104.5 3q123 2 274 6q-2 0 -2 -34t-2 -75q-2 -47 -2 -106h-776q0 -2 0 55.5t-1 152.5t-3 217t-4 250t-5 250t-5.5 218t-3.5 155.5t-1 61.5zM207 1774l140 176q90 -98 157 -176q29 -33 56.5 -64.5t49 -56t33.5 -39.5l13 -14q-2 0 -17.5 -12.5 t-33 -25.5t-31.5 -24.5t-14 -9.5l-15 12q-16 11 -40.5 28.5t-56.5 40t-65 44.5q-78 53 -176 121z" />
<glyph unicode="&#xc9;" horiz-adv-x="868" d="M18 1360q209 20 375 35q70 6 137.5 12t119.5 10t85 6l33 2q0 -2 2 -30.5t3 -62.5t1 -62.5t-4 -30.5t-66.5 -2t-153.5 1t-194.5 2t-185.5 3l27 -405q57 8 138 17t154.5 18.5t98.5 12.5l78 7q0 -2 3 -28.5t6 -59.5t4 -60.5t-3 -29.5t-55.5 -2h-124h-152.5h-139l37 -514 q8 2 36.5 3t71.5 2t94.5 2t104.5 3q123 2 274 6q-2 0 -2 -34t-2 -75q-2 -47 -2 -106h-776q0 -2 0 55.5t-1 152.5t-3 217t-4 250t-5 250t-5.5 218t-3.5 155.5t-1 61.5zM213 1600q-2 0 10.5 14.5t34 39t50 56t57.5 64.5q68 78 158 176l139 -176q-98 -68 -176 -121 q-33 -23 -64.5 -45t-56.5 -39.5t-32 -23.5l-23 -17q0 -2 -14.5 9.5t-32 24.5t-33 25.5t-17.5 12.5z" />
<glyph unicode="&#xca;" horiz-adv-x="868" d="M18 1360q209 20 375 35q70 6 137.5 12t119.5 10t85 6l33 2q0 -2 2 -30.5t3 -62.5t1 -62.5t-4 -30.5t-66.5 -2t-153.5 1t-194.5 2t-185.5 3l27 -405q57 8 138 17t154.5 18.5t98.5 12.5l78 7q0 -2 3 -28.5t6 -59.5t4 -60.5t-3 -29.5t-55.5 -2h-124h-152.5h-139l37 -514 q8 2 36.5 3t71.5 2t94.5 2t104.5 3q123 2 274 6q-2 0 -2 -34t-2 -75q-2 -47 -2 -106h-776q0 -2 0 55.5t-1 152.5t-3 217t-4 250t-5 250t-5.5 218t-3.5 155.5t-1 61.5zM127 1620q66 90 119 162q23 31 44 59.5t37.5 52t27.5 38.5l10 14h215l162 -358l-50 -21q-10 -4 -18 -6 t-16 -6t-17 -6l-82 143q-31 53 -55.5 97t-24.5 46l-11 -21q-11 -22 -29.5 -54.5t-39 -71.5t-38 -71.5t-29.5 -55.5l-12 -23q-2 0 -33 12.5t-66 28.5z" />
<glyph unicode="&#xcb;" horiz-adv-x="868" d="M18 1360q209 20 375 35q70 6 137.5 12t119.5 10t85 6l33 2q0 -2 2 -30.5t3 -62.5t1 -62.5t-4 -30.5t-66.5 -2t-153.5 1t-194.5 2t-185.5 3l27 -405q57 8 138 17t154.5 18.5t98.5 12.5l78 7q0 -2 3 -28.5t6 -59.5t4 -60.5t-3 -29.5t-55.5 -2h-124h-152.5h-139l37 -514 q8 2 36.5 3t71.5 2t94.5 2t104.5 3q123 2 274 6q-2 0 -2 -34t-2 -75q-2 -47 -2 -106h-776q0 -2 0 55.5t-1 152.5t-3 217t-4 250t-5 250t-5.5 218t-3.5 155.5t-1 61.5zM118 1674.5q-5 25.5 14.5 57t62.5 62.5q45 31 81 31t59.5 -18.5t31.5 -49t-2 -61.5t-43 -53.5t-90 -24.5 q-51 -2 -80 14.5t-34 42zM446 1674.5q-5 25.5 14.5 57t62.5 62.5q45 31 80.5 31t59 -18.5t32 -49t-2 -61.5t-43 -53.5t-90.5 -24.5q-51 -2 -79.5 14.5t-33.5 42z" />
<glyph unicode="&#xcc;" horiz-adv-x="600" d="M4 1284q0 16 2 39l4 57q150 16 266 31q49 6 97.5 11t86.5 9.5t60 6.5l23 2q0 -2 3 -29t6 -59.5t4 -60t-3 -29.5q-2 -2 -24.5 -2h-58.5t-81 1t-94 1q4 -72 10 -164t13.5 -195.5t14.5 -210t14 -208t13.5 -189.5t12.5 -154l180 -22l4 -58q2 -23 2 -39t-2 -16h-41t-100.5 -1 t-129 -1h-131h-102.5t-43 2q-4 2 -3 29.5t4 60.5t6 59.5t3 28.5q18 -2 41 -4q20 -2 46 -5t57 -7q-2 70 -4 159t-4 188t-4 202.5t-4.5 202t-4.5 187.5t-2 157q-29 0 -53.5 1t-42.5 1q-23 0 -39 2q-2 0 -2 16zM71 1774l140 176q90 -98 157 -176q29 -33 56.5 -64.5t49 -56 t33.5 -39.5l13 -14q-2 0 -17.5 -12.5t-33 -25.5t-31.5 -24.5t-14 -9.5l-15 12q-16 11 -40.5 28.5t-56.5 40t-65 44.5q-78 53 -176 121z" />
<glyph unicode="&#xcd;" horiz-adv-x="600" d="M4 1284q0 16 2 39l4 57q150 16 266 31q49 6 97.5 11t86.5 9.5t60 6.5l23 2q0 -2 3 -29t6 -59.5t4 -60t-3 -29.5q-2 -2 -24.5 -2h-58.5t-81 1t-94 1q4 -72 10 -164t13.5 -195.5t14.5 -210t14 -208t13.5 -189.5t12.5 -154l180 -22l4 -58q2 -23 2 -39t-2 -16h-41t-100.5 -1 t-129 -1h-131h-102.5t-43 2q-4 2 -3 29.5t4 60.5t6 59.5t3 28.5q18 -2 41 -4q20 -2 46 -5t57 -7q-2 70 -4 159t-4 188t-4 202.5t-4.5 202t-4.5 187.5t-2 157q-29 0 -53.5 1t-42.5 1q-23 0 -39 2q-2 0 -2 16zM77 1600q-2 0 10.5 14.5t34 39t50 56t57.5 64.5q68 78 158 176 l139 -176q-98 -68 -176 -121q-33 -23 -64.5 -45t-56.5 -39.5t-32 -23.5l-23 -17q0 -2 -14.5 9.5t-32 24.5t-33 25.5t-17.5 12.5z" />
<glyph unicode="&#xce;" horiz-adv-x="645" d="M-2 1620q66 90 119 162q23 31 44 59.5t37.5 52t27.5 38.5l10 14h215l162 -358l-50 -21q-10 -4 -18 -6t-16 -6t-17 -6l-82 143q-31 53 -55.5 97t-24.5 46l-11 -21q-11 -22 -29.5 -54.5t-39 -71.5t-38 -71.5t-29.5 -55.5l-12 -23q-2 0 -33 12.5t-66 28.5zM65 1284 q0 16 2 39l4 57q150 16 266 31q49 6 97.5 11t86.5 9.5t60 6.5l23 2q0 -2 3 -29t6 -59.5t4 -60t-3 -29.5q-2 -2 -24.5 -2h-58.5t-81 1t-94 1q4 -72 10 -164t13.5 -195.5t14.5 -210t14 -208t13.5 -189.5t12.5 -154l180 -22l4 -58q2 -23 2 -39t-2 -16h-41t-100.5 -1t-129 -1 h-131h-102.5t-43 2q-4 2 -3 29.5t4 60.5t6 59.5t3 28.5q18 -2 41 -4q20 -2 46 -5t57 -7q-2 70 -4 159t-4 188t-4 202.5t-4.5 202t-4.5 187.5t-2 157q-29 0 -53.5 1t-42.5 1q-23 0 -39 2q-2 0 -2 16z" />
<glyph unicode="&#xcf;" horiz-adv-x="600" d="M-11 1674.5q-5 25.5 14.5 57t62.5 62.5q45 31 81 31t59.5 -18.5t31.5 -49t-2 -61.5t-43 -53.5t-90 -24.5q-51 -2 -80 14.5t-34 42zM4 1284q0 16 2 39l4 57q150 16 266 31q49 6 97.5 11t86.5 9.5t60 6.5l23 2q0 -2 3 -29t6 -59.5t4 -60t-3 -29.5q-2 -2 -24.5 -2h-58.5 t-81 1t-94 1q4 -72 10 -164t13.5 -195.5t14.5 -210t14 -208t13.5 -189.5t12.5 -154l180 -22l4 -58q2 -23 2 -39t-2 -16h-41t-100.5 -1t-129 -1h-131h-102.5t-43 2q-4 2 -3 29.5t4 60.5t6 59.5t3 28.5q18 -2 41 -4q20 -2 46 -5t57 -7q-2 70 -4 159t-4 188t-4 202.5t-4.5 202 t-4.5 187.5t-2 157q-29 0 -53.5 1t-42.5 1q-23 0 -39 2q-2 0 -2 16zM317 1674.5q-5 25.5 14.5 57t62.5 62.5q45 31 80.5 31t59 -18.5t32 -49t-2 -61.5t-43 -53.5t-90.5 -24.5q-51 -2 -79.5 14.5t-33.5 42z" />
<glyph unicode="&#xd0;" horiz-adv-x="1105" d="M-4 708.5q0 16.5 2 39.5l4 57q12 0 27 2q12 2 30.5 4t40.5 6q-2 119 -4 229.5t-4 195.5t-2 135t2 50q4 -2 25.5 -2t48.5 2q31 2 67 5l3 -48q86 29 186 29q104 0 209.5 -18.5t193.5 -81t149.5 -181t78.5 -319.5q16 -188 -29 -338.5t-130 -256t-196.5 -162t-230.5 -54.5 q-72 0 -135 18l2 -26h-109q-20 0 -38.5 -1t-34.5 -1h-33q-2 102 -6 217q-4 98 -6.5 222t-4.5 259q-45 2 -73.5 2h-30.5t-2 16.5zM252 1159l22 -319q51 6 102.5 12t90.5 10t51 5l37 3q0 -2 3 -28.5t6 -59t4 -60.5t-3 -30q-2 -2 -26.5 -3t-64.5 -1h-89h-100l32 -481 q47 -23 98.5 -32t102.5 -9q98 0 171 48t122 126t73.5 179.5t28.5 205.5q4 141 -31.5 238.5t-96 157t-139.5 86t-161 26.5q-63 2 -122.5 -17.5t-110.5 -56.5z" />
<glyph unicode="&#xd1;" horiz-adv-x="983" d="M4 8q2 104 6 221q4 100 8.5 226.5t8.5 259.5q10 309 24 706l197 2q143 -328 256 -585q49 -111 95 -215.5t83 -186.5t59.5 -132t24.5 -50l-82 1169h117h117v-63.5v-161.5t-1.5 -227t-2.5 -259t-2 -259t-2 -226.5t-2 -158.5l-1 -60l-188 4l-549 1125l59 -1137q-63 2 -112 4 q-43 2 -78 2t-35 2zM145 1631q-4 -2 1 16t18.5 47t33 62.5t41 62.5t45 47.5t46.5 16.5q33 -4 62.5 -27t55 -49.5t46 -46t32.5 -17.5t27.5 25.5t30.5 52.5q16 33 30 72l105 -56q-25 -63 -49 -114q-23 -45 -50.5 -83t-58.5 -46q-47 -12 -75.5 -1t-49 29.5t-39 34t-43.5 13.5 q-25 -4 -40 -20.5t-25 -35.5q-10 -23 -17 -49l-57 37q-23 14 -43.5 23.5t-26.5 5.5z" />
<glyph unicode="&#xd2;" horiz-adv-x="1230" d="M4 752q16 201 77.5 328.5t149.5 201.5t194 102.5t210 28.5q139 0 241.5 -50t171 -139t103.5 -209t39 -259q6 -188 -44 -328.5t-135 -235t-195.5 -141.5t-225.5 -49q-119 -2 -230.5 45t-196.5 140.5t-130 234.5t-29 330zM143 664q4 -104 29 -195.5t74 -159t122 -105.5 t171 -38q74 0 149.5 21.5t138 76.5t106.5 152.5t56 249.5q10 143 -21.5 249.5t-92 178t-140.5 106.5t-164 33q-82 0 -160.5 -36t-139 -107.5t-96.5 -178t-32 -247.5zM387 1774l140 176q90 -98 157 -176q29 -33 56.5 -64.5t49 -56t33.5 -39.5l13 -14q-2 0 -17.5 -12.5 t-33 -25.5t-31.5 -24.5t-14 -9.5l-15 12q-16 11 -40.5 28.5t-56.5 40t-65 44.5q-78 53 -176 121z" />
<glyph unicode="&#xd3;" horiz-adv-x="1230" d="M4 752q16 201 77.5 328.5t149.5 201.5t194 102.5t210 28.5q139 0 241.5 -50t171 -139t103.5 -209t39 -259q6 -188 -44 -328.5t-135 -235t-195.5 -141.5t-225.5 -49q-119 -2 -230.5 45t-196.5 140.5t-130 234.5t-29 330zM143 664q4 -104 29 -195.5t74 -159t122 -105.5 t171 -38q74 0 149.5 21.5t138 76.5t106.5 152.5t56 249.5q10 143 -21.5 249.5t-92 178t-140.5 106.5t-164 33q-82 0 -160.5 -36t-139 -107.5t-96.5 -178t-32 -247.5zM393 1600q-2 0 10.5 14.5t34 39t50 56t57.5 64.5q68 78 158 176l139 -176q-98 -68 -176 -121 q-33 -23 -64.5 -45t-56.5 -39.5t-32 -23.5l-23 -17q0 -2 -14.5 9.5t-32 24.5t-33 25.5t-17.5 12.5z" />
<glyph unicode="&#xd4;" horiz-adv-x="1230" d="M4 752q16 201 77.5 328.5t149.5 201.5t194 102.5t210 28.5q139 0 241.5 -50t171 -139t103.5 -209t39 -259q6 -188 -44 -328.5t-135 -235t-195.5 -141.5t-225.5 -49q-119 -2 -230.5 45t-196.5 140.5t-130 234.5t-29 330zM143 664q4 -104 29 -195.5t74 -159t122 -105.5 t171 -38q74 0 149.5 21.5t138 76.5t106.5 152.5t56 249.5q10 143 -21.5 249.5t-92 178t-140.5 106.5t-164 33q-82 0 -160.5 -36t-139 -107.5t-96.5 -178t-32 -247.5zM307 1620q66 90 119 162q23 31 44 59.5t37.5 52t27.5 38.5l10 14h215l162 -358l-50 -21q-10 -4 -18 -6 t-16 -6t-17 -6l-82 143q-31 53 -55.5 97t-24.5 46l-11 -21q-11 -22 -29.5 -54.5t-39 -71.5t-38 -71.5t-29.5 -55.5l-12 -23q-2 0 -33 12.5t-66 28.5z" />
<glyph unicode="&#xd5;" horiz-adv-x="1230" d="M4 752q16 201 77.5 328.5t149.5 201.5t194 102.5t210 28.5q139 0 241.5 -50t171 -139t103.5 -209t39 -259q6 -188 -44 -328.5t-135 -235t-195.5 -141.5t-225.5 -49q-119 -2 -230.5 45t-196.5 140.5t-130 234.5t-29 330zM143 664q4 -104 29 -195.5t74 -159t122 -105.5 t171 -38q74 0 149.5 21.5t138 76.5t106.5 152.5t56 249.5q10 143 -21.5 249.5t-92 178t-140.5 106.5t-164 33q-82 0 -160.5 -36t-139 -107.5t-96.5 -178t-32 -247.5zM338 1631q-4 -2 1 16t18.5 47t33 62.5t41 62.5t45 47.5t46.5 16.5q33 -4 62.5 -27t55 -49.5t46 -46 t32.5 -17.5t27.5 25.5t30.5 52.5q16 33 30 72l105 -56q-25 -63 -49 -114q-23 -45 -50.5 -83t-58.5 -46q-47 -12 -75.5 -1t-49 29.5t-39 34t-43.5 13.5q-25 -4 -40 -20.5t-25 -35.5q-10 -23 -17 -49l-57 37q-23 14 -43.5 23.5t-26.5 5.5z" />
<glyph unicode="&#xd6;" horiz-adv-x="1230" d="M4 752q16 201 77.5 328.5t149.5 201.5t194 102.5t210 28.5q139 0 241.5 -50t171 -139t103.5 -209t39 -259q6 -188 -44 -328.5t-135 -235t-195.5 -141.5t-225.5 -49q-119 -2 -230.5 45t-196.5 140.5t-130 234.5t-29 330zM143 664q4 -104 29 -195.5t74 -159t122 -105.5 t171 -38q74 0 149.5 21.5t138 76.5t106.5 152.5t56 249.5q10 143 -21.5 249.5t-92 178t-140.5 106.5t-164 33q-82 0 -160.5 -36t-139 -107.5t-96.5 -178t-32 -247.5zM298 1674.5q-5 25.5 14.5 57t62.5 62.5q45 31 81 31t59.5 -18.5t31.5 -49t-2 -61.5t-43 -53.5t-90 -24.5 q-51 -2 -80 14.5t-34 42zM626 1674.5q-5 25.5 14.5 57t62.5 62.5q45 31 80.5 31t59 -18.5t32 -49t-2 -61.5t-43 -53.5t-90.5 -24.5q-51 -2 -79.5 14.5t-33.5 42z" />
<glyph unicode="&#xd7;" horiz-adv-x="796" d="M12 518q27 35 64 78q31 37 74 89t96 118q-41 39 -77 72.5t-62.5 59.5t-40.5 41l-15 15l37 49q17 22 37 47l17 -14q16 -14 44.5 -38.5t67.5 -56.5t82 -69q43 51 89 104.5t97 108.5l160 -161l-188 -183q51 -43 98 -83t84 -68q43 -37 80 -66q-33 -39 -60 -67 q-23 -25 -42 -46.5t-17 -19.5q-37 35 -78 74q-35 35 -81 79t-95 91q-51 -49 -99 -94.5t-86 -81t-60 -56.5l-23 -20q-2 4 -18.5 20.5t-35.5 32.5z" />
<glyph unicode="&#xd8;" horiz-adv-x="1230" d="M4 752q16 201 77.5 328.5t149.5 201.5t193.5 102.5t210.5 28.5q162 0 278 -70q47 76 76 121t29 47t16.5 -8t38.5 -24q25 -16 57 -39q-12 -23 -28 -51q-14 -25 -34.5 -61t-43.5 -77q80 -90 121 -217t45 -278q6 -188 -44 -328.5t-135 -235t-195.5 -141.5t-225.5 -49 q-131 -4 -246 51q-25 -41 -43 -73.5t-33 -57.5q-16 -29 -26 -51l-27 25q-27 24 -58.5 52.5t-57 53.5t-23.5 25q12 18 26 41q12 20 30 46.5t40 61.5q-90 94 -137 237.5t-31 338.5zM143 664q4 -111 31 -204t78 -161q57 92 127 200.5t142.5 223.5t144 228.5t133.5 211.5 q-51 35 -109.5 52.5t-118.5 17.5q-82 0 -160.5 -36t-139 -107.5t-96.5 -178t-32 -247.5zM418 182q55 -16 121 -16q74 0 149.5 21.5t138 76.5t106.5 152.5t56 249.5q10 123 -13.5 217t-68.5 166z" />
<glyph unicode="&#xd9;" horiz-adv-x="1134" d="M37 492v72.5t1 163.5t1 211t1 214t2 173t3 89l164 -2q-2 -8 -3 -76.5t0 -167t2 -213t2 -213t2 -167t1 -76.5q10 -156 95 -233t272 -68q84 4 138 44t87 109.5t45 163.5t12 205v86t-1 123.5t-2 141.5t-2 139.5t-2 119.5t-3 80l227 -2q2 0 1 -61.5t-2 -163t-3 -231.5 t-4 -265t-4 -264t-4 -230.5t-3 -163.5l-1 -61q-4 2 -25.5 2t-48.5 -2q-31 -2 -67 -4q0 18 -3 41q-2 20 -4 48t-4 63q-59 -49 -137 -80t-176 -35q-123 -6 -225.5 23.5t-176 91t-114.5 156t-41 219.5zM340 1774l140 176q90 -98 157 -176q29 -33 56.5 -64.5t49 -56t33.5 -39.5 l13 -14q-2 0 -17.5 -12.5t-33 -25.5t-31.5 -24.5t-14 -9.5l-15 12q-16 11 -40.5 28.5t-56.5 40t-65 44.5q-78 53 -176 121z" />
<glyph unicode="&#xda;" horiz-adv-x="1134" d="M37 492v72.5t1 163.5t1 211t1 214t2 173t3 89l164 -2q-2 -8 -3 -76.5t0 -167t2 -213t2 -213t2 -167t1 -76.5q10 -156 95 -233t272 -68q84 4 138 44t87 109.5t45 163.5t12 205v86t-1 123.5t-2 141.5t-2 139.5t-2 119.5t-3 80l227 -2q2 0 1 -61.5t-2 -163t-3 -231.5 t-4 -265t-4 -264t-4 -230.5t-3 -163.5l-1 -61q-4 2 -25.5 2t-48.5 -2q-31 -2 -67 -4q0 18 -3 41q-2 20 -4 48t-4 63q-59 -49 -137 -80t-176 -35q-123 -6 -225.5 23.5t-176 91t-114.5 156t-41 219.5zM346 1600q-2 0 10.5 14.5t34 39t50 56t57.5 64.5q68 78 158 176l139 -176 q-98 -68 -176 -121q-33 -23 -64.5 -45t-56.5 -39.5t-32 -23.5l-23 -17q0 -2 -14.5 9.5t-32 24.5t-33 25.5t-17.5 12.5z" />
<glyph unicode="&#xdb;" horiz-adv-x="1134" d="M37 492v72.5t1 163.5t1 211t1 214t2 173t3 89l164 -2q-2 -8 -3 -76.5t0 -167t2 -213t2 -213t2 -167t1 -76.5q10 -156 95 -233t272 -68q84 4 138 44t87 109.5t45 163.5t12 205v86t-1 123.5t-2 141.5t-2 139.5t-2 119.5t-3 80l227 -2q2 0 1 -61.5t-2 -163t-3 -231.5 t-4 -265t-4 -264t-4 -230.5t-3 -163.5l-1 -61q-4 2 -25.5 2t-48.5 -2q-31 -2 -67 -4q0 18 -3 41q-2 20 -4 48t-4 63q-59 -49 -137 -80t-176 -35q-123 -6 -225.5 23.5t-176 91t-114.5 156t-41 219.5zM260 1620q66 90 119 162q23 31 44 59.5t37.5 52t27.5 38.5l10 14h215 l162 -358l-50 -21q-10 -4 -18 -6t-16 -6t-17 -6l-82 143q-31 53 -55.5 97t-24.5 46l-11 -21q-11 -22 -29.5 -54.5t-39 -71.5t-38 -71.5t-29.5 -55.5l-12 -23q-2 0 -33 12.5t-66 28.5z" />
<glyph unicode="&#xdc;" horiz-adv-x="1134" d="M37 492v72.5t1 163.5t1 211t1 214t2 173t3 89l164 -2q-2 -8 -3 -76.5t0 -167t2 -213t2 -213t2 -167t1 -76.5q10 -156 95 -233t272 -68q84 4 138 44t87 109.5t45 163.5t12 205v86t-1 123.5t-2 141.5t-2 139.5t-2 119.5t-3 80l227 -2q2 0 1 -61.5t-2 -163t-3 -231.5 t-4 -265t-4 -264t-4 -230.5t-3 -163.5l-1 -61q-4 2 -25.5 2t-48.5 -2q-31 -2 -67 -4q0 18 -3 41q-2 20 -4 48t-4 63q-59 -49 -137 -80t-176 -35q-123 -6 -225.5 23.5t-176 91t-114.5 156t-41 219.5zM251 1674.5q-5 25.5 14.5 57t62.5 62.5q45 31 81 31t59.5 -18.5t31.5 -49 t-2 -61.5t-43 -53.5t-90 -24.5q-51 -2 -80 14.5t-34 42zM579 1674.5q-5 25.5 14.5 57t62.5 62.5q45 31 80.5 31t59 -18.5t32 -49t-2 -61.5t-43 -53.5t-90.5 -24.5q-51 -2 -79.5 14.5t-33.5 42z" />
<glyph unicode="&#xdd;" horiz-adv-x="1148" d="M2 1274q-2 2 27.5 25.5t65.5 51t68 49.5l32 23q78 -115 155 -227q66 -96 139.5 -202.5t133.5 -192.5q74 117 144.5 227.5t125.5 197.5t88 140t33 55t16.5 -8t38.5 -24q25 -16 57 -39q-63 -111 -131 -232q-59 -104 -131.5 -234t-146.5 -263l59 -619h-108q-20 0 -39 -1 t-35 -1h-33v30v81.5v115v132t1 131t1 110.5zM352 1600q-2 0 10.5 14.5t34 39t50 56t57.5 64.5q68 78 158 176l139 -176q-98 -68 -176 -121q-33 -23 -64.5 -45t-56.5 -39.5t-32 -23.5l-23 -17q0 -2 -14.5 9.5t-32 24.5t-33 25.5t-17.5 12.5z" />
<glyph unicode="&#xde;" horiz-adv-x="880" d="M30 1254.5q-1 111.5 1 177.5l233 -15l-22 -323q78 16 171 22t177 -18.5t145.5 -88t73.5 -186.5q12 -125 -33 -210t-130 -143t-202.5 -95t-248.5 -66l-19 -313l-129 10q0 68 -1 181.5t-3 250.5t-5 284.5t-5 284t-3 248zM205 481q55 12 135 35t152.5 61.5t119.5 93 t39 128.5q-8 70 -51 105.5t-104.5 49t-131.5 10t-131 -13.5q-6 -115 -13 -233.5t-15 -235.5z" />
<glyph unicode="&#xdf;" horiz-adv-x="974" d="M35 573.5q0 139.5 4 268.5t14.5 230.5t28.5 144.5q25 59 75 102t110.5 71.5t126 43t123.5 13.5t104.5 -15.5t66.5 -40.5q37 -49 35 -111.5t-26.5 -129.5t-63.5 -135.5t-76 -131t-64.5 -114.5t-29.5 -89q-2 -20 28.5 -33.5t77.5 -31t103.5 -43t105.5 -67.5t84 -105.5 t41 -159.5q4 -84 -20.5 -138.5t-67.5 -86t-100.5 -46t-118.5 -16.5q-143 -6 -328 43l11 139q123 -31 219 -35q41 -2 79.5 1t69.5 15.5t48.5 35t17.5 59.5q-2 59 -34 103t-78 78t-100.5 61.5t-100.5 55.5t-76.5 59.5t-32.5 72.5q-2 43 20.5 98.5t54 115.5t66.5 120.5 t60.5 113t34 92.5t-14.5 60q-33 31 -76 31t-85 -20.5t-78.5 -56.5t-59.5 -79q-12 -23 -18.5 -82t-8.5 -142t-2 -181.5t2 -198.5q4 -233 17 -516q-39 4 -74 8q-29 4 -55.5 5t-34.5 -1q2 18 1 102.5t-3 204t-2 259zM37 4q0 -2 1 -1t1 5q-4 -2 -2 -4z" />
<glyph unicode="&#xe0;" d="M2 559q12 141 70.5 232.5t139.5 143.5t173 72.5t174 20.5q150 0 260 -70l-6 123l227 -2q0 -2 -1 -50t-2 -126t-2 -178t-3 -203.5t-3 -203t-3 -177.5t-3 -125t-3 -47q-4 2 -25.5 2t-48.5 -2q-31 -2 -67 -4q0 18 -2 41q-2 20 -4.5 47t-4.5 62q-59 -49 -137 -79t-176 -34 q-131 -6 -238.5 27.5t-182.5 104.5t-109.5 177.5t-22.5 247.5zM144 508q-1 -92 39 -171t123 -130t208 -51q98 0 167 54t103.5 134t37.5 173t-27.5 173t-97 131t-169.5 49q-127 -4 -211 -58t-128 -133t-45 -171zM325 1364l140 176q90 -98 157 -176q29 -33 56.5 -64.5t49 -56 t33.5 -39.5l13 -14q-2 0 -17.5 -12.5t-33 -25.5t-31.5 -24.5t-14 -9.5l-15 12q-16 11 -40.5 28.5t-56.5 40t-65 44.5q-78 53 -176 121z" />
<glyph unicode="&#xe1;" d="M2 559q12 141 70.5 232.5t139.5 143.5t173 72.5t174 20.5q150 0 260 -70l-6 123l227 -2q0 -2 -1 -50t-2 -126t-2 -178t-3 -203.5t-3 -203t-3 -177.5t-3 -125t-3 -47q-4 2 -25.5 2t-48.5 -2q-31 -2 -67 -4q0 18 -2 41q-2 20 -4.5 47t-4.5 62q-59 -49 -137 -79t-176 -34 q-131 -6 -238.5 27.5t-182.5 104.5t-109.5 177.5t-22.5 247.5zM144 508q-1 -92 39 -171t123 -130t208 -51q98 0 167 54t103.5 134t37.5 173t-27.5 173t-97 131t-169.5 49q-127 -4 -211 -58t-128 -133t-45 -171zM331 1190q-2 0 10.5 14.5t34 39t50 56t57.5 64.5 q68 78 158 176l139 -176q-98 -68 -176 -121q-33 -23 -64.5 -45t-56.5 -39.5t-32 -23.5l-23 -17q0 -2 -14.5 9.5t-32 24.5t-33 25.5t-17.5 12.5z" />
<glyph unicode="&#xe2;" d="M2 559q12 141 70.5 232.5t139.5 143.5t173 72.5t174 20.5q150 0 260 -70l-6 123l227 -2q0 -2 -1 -50t-2 -126t-2 -178t-3 -203.5t-3 -203t-3 -177.5t-3 -125t-3 -47q-4 2 -25.5 2t-48.5 -2q-31 -2 -67 -4q0 18 -2 41q-2 20 -4.5 47t-4.5 62q-59 -49 -137 -79t-176 -34 q-131 -6 -238.5 27.5t-182.5 104.5t-109.5 177.5t-22.5 247.5zM144 508q-1 -92 39 -171t123 -130t208 -51q98 0 167 54t103.5 134t37.5 173t-27.5 173t-97 131t-169.5 49q-127 -4 -211 -58t-128 -133t-45 -171zM184 1210q66 90 119 162q23 31 44 59.5t37.5 52t27.5 38.5 l10 14h215l162 -358l-50 -21q-10 -4 -18 -6t-16 -6t-17 -6l-82 143q-31 53 -55.5 97t-24.5 46l-11 -21q-11 -22 -29.5 -54.5t-39 -71.5t-38 -71.5t-29.5 -55.5l-12 -23q-2 0 -33 12.5t-66 28.5z" />
<glyph unicode="&#xe3;" d="M2 559q12 141 70.5 232.5t139.5 143.5t173 72.5t174 20.5q150 0 260 -70l-6 123l227 -2q0 -2 -1 -50t-2 -126t-2 -178t-3 -203.5t-3 -203t-3 -177.5t-3 -125t-3 -47q-4 2 -25.5 2t-48.5 -2q-31 -2 -67 -4q0 18 -2 41q-2 20 -4.5 47t-4.5 62q-59 -49 -137 -79t-176 -34 q-131 -6 -238.5 27.5t-182.5 104.5t-109.5 177.5t-22.5 247.5zM144 508q-1 -92 39 -171t123 -130t208 -51q98 0 167 54t103.5 134t37.5 173t-27.5 173t-97 131t-169.5 49q-127 -4 -211 -58t-128 -133t-45 -171zM289 1221q-4 -2 1 16t18.5 47t33 62.5t41 62.5t45 47.5 t46.5 16.5q33 -4 62.5 -27t55 -49.5t46 -46t32.5 -17.5t27.5 25.5t30.5 52.5q16 33 30 72l105 -56q-25 -63 -49 -114q-23 -45 -50.5 -83t-58.5 -46q-47 -12 -75.5 -1t-49 29.5t-39 34t-43.5 13.5q-25 -4 -40 -20.5t-25 -35.5q-10 -23 -17 -49l-57 37q-23 14 -43.5 23.5 t-26.5 5.5z" />
<glyph unicode="&#xe4;" d="M2 559q12 141 70.5 232.5t139.5 143.5t173 72.5t174 20.5q150 0 260 -70l-6 123l227 -2q0 -2 -1 -50t-2 -126t-2 -178t-3 -203.5t-3 -203t-3 -177.5t-3 -125t-3 -47q-4 2 -25.5 2t-48.5 -2q-31 -2 -67 -4q0 18 -2 41q-2 20 -4.5 47t-4.5 62q-59 -49 -137 -79t-176 -34 q-131 -6 -238.5 27.5t-182.5 104.5t-109.5 177.5t-22.5 247.5zM144 508q-1 -92 39 -171t123 -130t208 -51q98 0 167 54t103.5 134t37.5 173t-27.5 173t-97 131t-169.5 49q-127 -4 -211 -58t-128 -133t-45 -171zM206 1264.5q-5 25.5 14.5 57t62.5 62.5q45 31 81 31 t59.5 -18.5t31.5 -49t-2 -61.5t-43 -53.5t-90 -24.5q-51 -2 -80 14.5t-34 42zM534 1264.5q-5 25.5 14.5 57t62.5 62.5q45 31 80.5 31t59 -18.5t32 -49t-2 -61.5t-43 -53.5t-90.5 -24.5q-51 -2 -79.5 14.5t-33.5 42z" />
<glyph unicode="&#xe5;" d="M2 559q12 141 70.5 232.5t139.5 143.5t173 72.5t174 20.5q150 0 260 -70l-6 123l227 -2q0 -2 -1 -50t-2 -126t-2 -178t-3 -203.5t-3 -203t-3 -177.5t-3 -125t-3 -47q-4 2 -25.5 2t-48.5 -2q-31 -2 -67 -4q0 18 -2 41q-2 20 -4.5 47t-4.5 62q-59 -49 -137 -79t-176 -34 q-131 -6 -238.5 27.5t-182.5 104.5t-109.5 177.5t-22.5 247.5zM144 508q-1 -92 39 -171t123 -130t208 -51q98 0 167 54t103.5 134t37.5 173t-27.5 173t-97 131t-169.5 49q-127 -4 -211 -58t-128 -133t-45 -171zM230 1233q-11 53 30 119.5t133 132.5q96 68 173 66.5t127 -40 t67.5 -104.5t-6 -129.5t-92 -110.5t-191.5 -51q-109 -4 -169.5 30t-71.5 87zM351 1264.5q5 -25.5 33.5 -42t80.5 -14.5q57 2 90 24.5t43 53.5t2 61.5t-31.5 49t-59.5 18.5t-81 -31q-43 -31 -62.5 -62.5t-14.5 -57z" />
<glyph unicode="&#xe6;" horiz-adv-x="1955" d="M2 559q12 141 70.5 232.5t139.5 143.5t173 72.5t174 20.5q150 0 260 -70l-6 123l227 -2q0 -2 -1 -47t-1 -117q84 63 183.5 87t189.5 26q111 0 196 -35t146.5 -97t97 -146t47.5 -179q0 -2 -56 -8t-144 -15t-192.5 -20.5t-201 -21.5t-171 -18.5t-101.5 -12.5 q0 -18 -1 -37.5t-1 -38.5q12 -51 39 -95t68 -77.5t97 -52t132 -18.5q84 0 149.5 48t104.5 109l197 -82q-59 -88 -164 -155.5t-246 -73.5q-117 -4 -214 20.5t-169 77.5q-2 -29 -2 -53v-41q0 -20 -2 -37q-4 2 -25.5 2t-48.5 -2q-31 -2 -67 -4q0 18 -2 41q-2 20 -4.5 47 t-4.5 62q-59 -49 -137 -79t-176 -34q-131 -6 -238.5 27.5t-182.5 104.5t-109.5 177.5t-22.5 247.5zM144 508q-1 -92 39 -171t123 -130t208 -51q98 0 167 54t103.5 134t37.5 173t-27.5 173t-97 131t-169.5 49q-125 -4 -210 -58t-129 -133t-45 -171zM1034 612l287 50 q53 8 104.5 17t90 15t62.5 10l24 5q-10 57 -76 99t-172 40q-139 -4 -221 -66.5t-99 -169.5z" />
<glyph unicode="&#xe7;" horiz-adv-x="987" d="M-8 463q-10 98 16.5 195.5t88 177t157.5 131t227 57.5q154 6 259.5 -39t177.5 -141l-127 -99q-47 55 -106.5 90t-162.5 35q-98 0 -166.5 -54t-103.5 -134t-38 -173t27.5 -173t97.5 -131t169 -49q104 4 181 42t124 97l135 -84q-43 -61 -99 -102t-119.5 -66t-128 -35 t-124.5 -10q-111 0 -196.5 36t-147 99.5t-97.5 148.5t-44 181zM307 -350q57 -8 105 -4q41 4 73.5 17t36.5 48q2 35 -26.5 51.5t-65.5 24.5q-43 8 -98 8q8 74 16 133q6 51 11.5 92.5t9.5 45.5q2 2 23.5 2t43.5 -2q27 -2 62 -7l6 -172q61 2 112 -18q43 -16 80 -59t41 -127 q2 -43 -15 -71t-47 -45.5t-69 -24.5t-80 -7q-96 -4 -219 23v92z" />
<glyph unicode="&#xe8;" horiz-adv-x="1083" d="M2 559q12 141 70.5 232.5t139.5 143.5t173 72.5t174 20.5q111 0 196 -35t146.5 -97t97 -146t48.5 -179q0 -2 -64.5 -9t-163 -17t-212 -21.5t-211 -23t-163 -18.5t-65.5 -9q4 -61 25.5 -119.5t63.5 -102.5t105.5 -69.5t151.5 -25.5q84 0 149.5 48t104.5 109l197 -82 q-59 -88 -164 -155.5t-246 -73.5q-131 -6 -238.5 27.5t-182.5 104.5t-109.5 177.5t-22.5 247.5zM182 612l287 50q53 8 104.5 17t90 15t62.5 10l24 5q-10 57 -76 99t-172 40q-139 -4 -221 -66.5t-99 -169.5zM313 1364l140 176q90 -98 157 -176q29 -33 56.5 -64.5t49 -56 t33.5 -39.5l13 -14q-2 0 -17.5 -12.5t-33 -25.5t-31.5 -24.5t-14 -9.5l-15 12q-16 11 -40.5 28.5t-56.5 40t-65 44.5q-78 53 -176 121z" />
<glyph unicode="&#xe9;" horiz-adv-x="1083" d="M2 559q12 141 70.5 232.5t139.5 143.5t173 72.5t174 20.5q111 0 196 -35t146.5 -97t97 -146t48.5 -179q0 -2 -64.5 -9t-163 -17t-212 -21.5t-211 -23t-163 -18.5t-65.5 -9q4 -61 25.5 -119.5t63.5 -102.5t105.5 -69.5t151.5 -25.5q84 0 149.5 48t104.5 109l197 -82 q-59 -88 -164 -155.5t-246 -73.5q-131 -6 -238.5 27.5t-182.5 104.5t-109.5 177.5t-22.5 247.5zM182 612l287 50q53 8 104.5 17t90 15t62.5 10l24 5q-10 57 -76 99t-172 40q-139 -4 -221 -66.5t-99 -169.5zM319 1190q-2 0 10.5 14.5t34 39t50 56t57.5 64.5q68 78 158 176 l139 -176q-98 -68 -176 -121q-33 -23 -64.5 -45t-56.5 -39.5t-32 -23.5l-23 -17q0 -2 -14.5 9.5t-32 24.5t-33 25.5t-17.5 12.5z" />
<glyph unicode="&#xea;" horiz-adv-x="1083" d="M2 559q12 141 70.5 232.5t139.5 143.5t173 72.5t174 20.5q111 0 196 -35t146.5 -97t97 -146t48.5 -179q0 -2 -64.5 -9t-163 -17t-212 -21.5t-211 -23t-163 -18.5t-65.5 -9q4 -61 25.5 -119.5t63.5 -102.5t105.5 -69.5t151.5 -25.5q84 0 149.5 48t104.5 109l197 -82 q-59 -88 -164 -155.5t-246 -73.5q-131 -6 -238.5 27.5t-182.5 104.5t-109.5 177.5t-22.5 247.5zM182 612l287 50q53 8 104.5 17t90 15t62.5 10l24 5q-10 57 -76 99t-172 40q-139 -4 -221 -66.5t-99 -169.5zM233 1210q66 90 119 162q23 31 44 59.5t37.5 52t27.5 38.5l10 14 h215l162 -358l-50 -21q-10 -4 -18 -6t-16 -6t-17 -6l-82 143q-31 53 -55.5 97t-24.5 46l-11 -21q-11 -22 -29.5 -54.5t-39 -71.5t-38 -71.5t-29.5 -55.5l-12 -23q-2 0 -33 12.5t-66 28.5z" />
<glyph unicode="&#xeb;" horiz-adv-x="1083" d="M2 559q12 141 70.5 232.5t139.5 143.5t173 72.5t174 20.5q111 0 196 -35t146.5 -97t97 -146t48.5 -179q0 -2 -64.5 -9t-163 -17t-212 -21.5t-211 -23t-163 -18.5t-65.5 -9q4 -61 25.5 -119.5t63.5 -102.5t105.5 -69.5t151.5 -25.5q84 0 149.5 48t104.5 109l197 -82 q-59 -88 -164 -155.5t-246 -73.5q-131 -6 -238.5 27.5t-182.5 104.5t-109.5 177.5t-22.5 247.5zM182 612l287 50q53 8 104.5 17t90 15t62.5 10l24 5q-10 57 -76 99t-172 40q-139 -4 -221 -66.5t-99 -169.5zM224 1264.5q-5 25.5 14.5 57t62.5 62.5q45 31 81 31t59.5 -18.5 t31.5 -49t-2 -61.5t-43 -53.5t-90 -24.5q-51 -2 -80 14.5t-34 42zM552 1264.5q-5 25.5 14.5 57t62.5 62.5q45 31 80.5 31t59 -18.5t32 -49t-2 -61.5t-43 -53.5t-90.5 -24.5q-51 -2 -79.5 14.5t-33.5 42z" />
<glyph unicode="&#xec;" horiz-adv-x="700" d="M2 1014l625 4q0 -2 -4.5 -46t-11.5 -117t-15 -165t-17.5 -187t-18.5 -187.5t-16 -164t-11.5 -114.5t-6.5 -43q-4 2 -25.5 2t-47.5 -2q-31 -2 -68 -4q14 233 23 418q4 78 7 153.5t6 135t4 95.5l1 37h-30q-31 0 -76.5 -2t-98.5 -3t-98 -3t-76 -2h-31l-3 31q-3 31 -5 66.5 t-4 65.5t-2 32zM123 1364l140 176q90 -98 157 -176q29 -33 56.5 -64.5t49 -56t33.5 -39.5l13 -14q-2 0 -17.5 -12.5t-33 -25.5t-31.5 -24.5t-14 -9.5l-15 12q-16 11 -40.5 28.5t-56.5 40t-65 44.5q-78 53 -176 121z" />
<glyph unicode="&#xed;" horiz-adv-x="700" d="M2 1014l625 4q0 -2 -4.5 -46t-11.5 -117t-15 -165t-17.5 -187t-18.5 -187.5t-16 -164t-11.5 -114.5t-6.5 -43q-4 2 -25.5 2t-47.5 -2q-31 -2 -68 -4q14 233 23 418q4 78 7 153.5t6 135t4 95.5l1 37h-30q-31 0 -76.5 -2t-98.5 -3t-98 -3t-76 -2h-31l-3 31q-3 31 -5 66.5 t-4 65.5t-2 32zM129 1190q-2 0 10.5 14.5t34 39t50 56t57.5 64.5q68 78 158 176l139 -176q-98 -68 -176 -121q-33 -23 -64.5 -45t-56.5 -39.5t-32 -23.5l-23 -17q0 -2 -14.5 9.5t-32 24.5t-33 25.5t-17.5 12.5z" />
<glyph unicode="&#xee;" horiz-adv-x="700" d="M2 1014l625 4q0 -2 -4.5 -46t-11.5 -117t-15 -165t-17.5 -187t-18.5 -187.5t-16 -164t-11.5 -114.5t-6.5 -43q-4 2 -25.5 2t-47.5 -2q-31 -2 -68 -4q14 233 23 418q4 78 7 153.5t6 135t4 95.5l1 37h-30q-31 0 -76.5 -2t-98.5 -3t-98 -3t-76 -2h-31l-3 31q-3 31 -5 66.5 t-4 65.5t-2 32zM43 1210q66 90 119 162q23 31 44 59.5t37.5 52t27.5 38.5l10 14h215l162 -358l-50 -21q-10 -4 -18 -6t-16 -6t-17 -6l-82 143q-31 53 -55.5 97t-24.5 46l-11 -21q-11 -22 -29.5 -54.5t-39 -71.5t-38 -71.5t-29.5 -55.5l-12 -23q-2 0 -33 12.5t-66 28.5z" />
<glyph unicode="&#xef;" horiz-adv-x="700" d="M2 1014l625 4q0 -2 -4.5 -46t-11.5 -117t-15 -165t-17.5 -187t-18.5 -187.5t-16 -164t-11.5 -114.5t-6.5 -43q-4 2 -25.5 2t-47.5 -2q-31 -2 -68 -4q14 233 23 418q4 78 7 153.5t6 135t4 95.5l1 37h-30q-31 0 -76.5 -2t-98.5 -3t-98 -3t-76 -2h-31l-3 31q-3 31 -5 66.5 t-4 65.5t-2 32zM34 1264.5q-5 25.5 14.5 57t62.5 62.5q45 31 81 31t59.5 -18.5t31.5 -49t-2 -61.5t-43 -53.5t-90 -24.5q-51 -2 -80 14.5t-34 42zM362 1264.5q-5 25.5 14.5 57t62.5 62.5q45 31 80.5 31t59 -18.5t32 -49t-2 -61.5t-43 -53.5t-90.5 -24.5q-51 -2 -79.5 14.5 t-33.5 42z" />
<glyph unicode="&#xf0;" horiz-adv-x="1124" d="M6 570.5q14 138.5 94 240.5t219.5 153.5t323.5 24.5l-270 357l164 104l430 -659q80 -119 101.5 -229.5t-9.5 -208t-110 -179.5t-197 -139q-90 -41 -196.5 -41t-205 36t-178.5 102.5t-119 156.5q-61 143 -47 281.5zM148.5 500q11.5 -84 58.5 -165t117.5 -133t155.5 -66.5 t173 32.5q76 43 122 98.5t64.5 115.5t13.5 122.5t-32 118.5q-41 80 -102.5 129t-133 68.5t-147.5 10t-145 -46.5q-90 -47 -123 -123.5t-21.5 -160.5zM416 1110h2q-2 2 -2 0zM418 1110q4 2 19.5 16.5t37 37t48 50t52.5 56.5q63 68 142 149l114 -119l-360 -249l-25 28 q-10 10 -17 19.5t-11 11.5z" />
<glyph unicode="&#xf1;" horiz-adv-x="1103" d="M23 1005q0 44 2 44q4 -2 25.5 -2t47.5 2q31 2 68 4l10 -127q59 41 149.5 71.5t217.5 26.5q125 -4 211 -48t143 -116t90 -161t48.5 -183t17.5 -184t-1 -162t-7.5 -118t-0.5 -52l-264 -4q37 252 25 450q-6 84 -23.5 164t-52.5 141.5t-92 97.5t-139 32q-53 -4 -99.5 -20.5 t-84.5 -42t-67.5 -55.5t-51.5 -61l57 -700h-109q-20 0 -38.5 -1t-34.5 -1h-33l-1 45t-2 119t-3 168t-3 193.5t-2 193.5t-2 168t-1 118zM225 1221q-4 -2 1 16t18.5 47t33 62.5t41 62.5t45 47.5t46.5 16.5q33 -4 62.5 -27t55 -49.5t46 -46t32.5 -17.5t27.5 25.5t30.5 52.5 q16 33 30 72l105 -56q-25 -63 -49 -114q-23 -45 -50.5 -83t-58.5 -46q-47 -12 -75.5 -1t-49 29.5t-39 34t-43.5 13.5q-25 -4 -40 -20.5t-25 -35.5q-10 -23 -17 -49l-57 37q-23 14 -43.5 23.5t-26.5 5.5z" />
<glyph unicode="&#xf2;" horiz-adv-x="1089" d="M2 559q12 141 70.5 232.5t139.5 143.5t173 72.5t174 20.5q111 0 197 -36t147.5 -99.5t96 -148.5t44.5 -181q8 -98 -17.5 -195.5t-86.5 -177t-157.5 -131t-227.5 -57.5t-238.5 27.5t-182.5 104.5t-109.5 177.5t-22.5 247.5zM144 508q-1 -92 39 -171t123 -130t208 -51 q98 0 167 54t103.5 134t37.5 173t-27.5 173t-97 131t-169.5 49q-127 -4 -211 -58t-128 -133t-45 -171zM317 1364l140 176q90 -98 157 -176q29 -33 56.5 -64.5t49 -56t33.5 -39.5l13 -14q-2 0 -17.5 -12.5t-33 -25.5t-31.5 -24.5t-14 -9.5l-15 12q-16 11 -40.5 28.5t-56.5 40 t-65 44.5q-78 53 -176 121z" />
<glyph unicode="&#xf3;" horiz-adv-x="1089" d="M2 559q12 141 70.5 232.5t139.5 143.5t173 72.5t174 20.5q111 0 197 -36t147.5 -99.5t96 -148.5t44.5 -181q8 -98 -17.5 -195.5t-86.5 -177t-157.5 -131t-227.5 -57.5t-238.5 27.5t-182.5 104.5t-109.5 177.5t-22.5 247.5zM144 508q-1 -92 39 -171t123 -130t208 -51 q98 0 167 54t103.5 134t37.5 173t-27.5 173t-97 131t-169.5 49q-127 -4 -211 -58t-128 -133t-45 -171zM323 1190q-2 0 10.5 14.5t34 39t50 56t57.5 64.5q68 78 158 176l139 -176q-98 -68 -176 -121q-33 -23 -64.5 -45t-56.5 -39.5t-32 -23.5l-23 -17q0 -2 -14.5 9.5 t-32 24.5t-33 25.5t-17.5 12.5z" />
<glyph unicode="&#xf4;" horiz-adv-x="1089" d="M2 559q12 141 70.5 232.5t139.5 143.5t173 72.5t174 20.5q111 0 197 -36t147.5 -99.5t96 -148.5t44.5 -181q8 -98 -17.5 -195.5t-86.5 -177t-157.5 -131t-227.5 -57.5t-238.5 27.5t-182.5 104.5t-109.5 177.5t-22.5 247.5zM144 508q-1 -92 39 -171t123 -130t208 -51 q98 0 167 54t103.5 134t37.5 173t-27.5 173t-97 131t-169.5 49q-127 -4 -211 -58t-128 -133t-45 -171zM237 1210q66 90 119 162q23 31 44 59.5t37.5 52t27.5 38.5l10 14h215l162 -358l-50 -21q-10 -4 -18 -6t-16 -6t-17 -6l-82 143q-31 53 -55.5 97t-24.5 46l-11 -21 q-11 -22 -29.5 -54.5t-39 -71.5t-38 -71.5t-29.5 -55.5l-12 -23q-2 0 -33 12.5t-66 28.5z" />
<glyph unicode="&#xf5;" horiz-adv-x="1089" d="M2 559q12 141 70.5 232.5t139.5 143.5t173 72.5t174 20.5q111 0 197 -36t147.5 -99.5t96 -148.5t44.5 -181q8 -98 -17.5 -195.5t-86.5 -177t-157.5 -131t-227.5 -57.5t-238.5 27.5t-182.5 104.5t-109.5 177.5t-22.5 247.5zM144 508q-1 -92 39 -171t123 -130t208 -51 q98 0 167 54t103.5 134t37.5 173t-27.5 173t-97 131t-169.5 49q-127 -4 -211 -58t-128 -133t-45 -171zM266 1221q-4 -2 1 16t18.5 47t33 62.5t41 62.5t45 47.5t46.5 16.5q33 -4 62.5 -27t55 -49.5t46 -46t32.5 -17.5t27.5 25.5t30.5 52.5q16 33 30 72l105 -56 q-25 -63 -49 -114q-23 -45 -50.5 -83t-58.5 -46q-47 -12 -75.5 -1t-49 29.5t-39 34t-43.5 13.5q-25 -4 -40 -20.5t-25 -35.5q-10 -23 -17 -49l-57 37q-23 14 -43.5 23.5t-26.5 5.5z" />
<glyph unicode="&#xf6;" horiz-adv-x="1089" d="M2 559q12 141 70.5 232.5t139.5 143.5t173 72.5t174 20.5q111 0 197 -36t147.5 -99.5t96 -148.5t44.5 -181q8 -98 -17.5 -195.5t-86.5 -177t-157.5 -131t-227.5 -57.5t-238.5 27.5t-182.5 104.5t-109.5 177.5t-22.5 247.5zM144 508q-1 -92 39 -171t123 -130t208 -51 q98 0 167 54t103.5 134t37.5 173t-27.5 173t-97 131t-169.5 49q-127 -4 -211 -58t-128 -133t-45 -171zM228 1264.5q-5 25.5 14.5 57t62.5 62.5q45 31 81 31t59.5 -18.5t31.5 -49t-2 -61.5t-43 -53.5t-90 -24.5q-51 -2 -80 14.5t-34 42zM556 1264.5q-5 25.5 14.5 57 t62.5 62.5q45 31 80.5 31t59 -18.5t32 -49t-2 -61.5t-43 -53.5t-90.5 -24.5q-51 -2 -79.5 14.5t-33.5 42z" />
<glyph unicode="&#xf7;" horiz-adv-x="720" d="M25 731q0 -16 2 -16h48q48 0 119.5 -1t154.5 -1h154.5h121t51.5 2q4 2 3 29.5t-4 60.5t-6 59.5t-3 28.5l-28 -2t-72 -6t-101 -10.5t-117 -12.5q-141 -14 -317 -35l-4 -57q-2 -23 -2 -39zM220 506.5q-5 25.5 14.5 57.5t62.5 63q45 31 81 30.5t59.5 -18.5t31.5 -49 t-2 -61.5t-43 -53t-90 -24.5q-51 -2 -80 14t-34 41.5zM220 967.5q-5 25.5 14.5 57t62.5 62.5q45 31 81 31t59.5 -18.5t31.5 -49t-2 -61.5t-43 -53.5t-90 -24.5q-51 -2 -80 14.5t-34 42z" />
<glyph unicode="&#xf8;" horiz-adv-x="1089" d="M2 559q12 141 70.5 232.5t139.5 143.5t173 72.5t174 20.5q111 0 197 -36t147.5 -99.5t96 -148.5t44.5 -181q8 -98 -17.5 -195.5t-86.5 -177t-157.5 -131t-227.5 -57.5t-238.5 27.5t-182.5 104.5t-109.5 177.5t-22.5 247.5zM31 -61q2 0 37 54t92 143t130 202t148.5 231.5 t147.5 232t128 204t91 144.5t35 56t16.5 -8t38.5 -24q25 -16 58 -39q-213 -379 -379 -676q-72 -127 -139.5 -248t-121 -216t-84.5 -154l-32 -58l-26 24q-27 25 -59 53.5t-57.5 53.5t-23.5 25zM144 508q-1 -92 39 -171t123 -130t208 -51q98 0 167 54t103.5 134t37.5 173 t-27.5 173t-97 131t-169.5 49q-127 -4 -211 -58t-128 -133t-45 -171z" />
<glyph unicode="&#xf9;" d="M18 492v43.5t1 93t1 120t1.5 123t2.5 102.5t3 60l163 -2q-2 -8 -3 -48t-1 -96.5t1 -122t2 -121.5t2.5 -96t3.5 -48q8 -72 31.5 -129.5t67.5 -97.5t109.5 -59t157.5 -15q84 4 138.5 46t87 111.5t45 162.5t12.5 202q-6 92 -6 160.5t-4 148.5l227 -2q2 0 1 -45t-2 -120 t-3 -170t-4 -194.5t-4 -194.5t-4.5 -170t-3.5 -120l-1 -45q-4 2 -25.5 2t-47.5 -2q-31 -2 -68 -4q0 18 -2 41q-2 20 -4 48t-4 63q-59 -49 -137 -80t-177 -35q-123 -6 -225 23.5t-176 91t-115 156t-41 219.5zM325 1364l140 176q90 -98 157 -176q29 -33 56.5 -64.5t49 -56 t33.5 -39.5l13 -14q-2 0 -17.5 -12.5t-33 -25.5t-31.5 -24.5t-14 -9.5l-15 12q-16 11 -40.5 28.5t-56.5 40t-65 44.5q-78 53 -176 121z" />
<glyph unicode="&#xfa;" d="M18 492v43.5t1 93t1 120t1.5 123t2.5 102.5t3 60l163 -2q-2 -8 -3 -48t-1 -96.5t1 -122t2 -121.5t2.5 -96t3.5 -48q8 -72 31.5 -129.5t67.5 -97.5t109.5 -59t157.5 -15q84 4 138.5 46t87 111.5t45 162.5t12.5 202q-6 92 -6 160.5t-4 148.5l227 -2q2 0 1 -45t-2 -120 t-3 -170t-4 -194.5t-4 -194.5t-4.5 -170t-3.5 -120l-1 -45q-4 2 -25.5 2t-47.5 -2q-31 -2 -68 -4q0 18 -2 41q-2 20 -4 48t-4 63q-59 -49 -137 -80t-177 -35q-123 -6 -225 23.5t-176 91t-115 156t-41 219.5zM331 1190q-2 0 10.5 14.5t34 39t50 56t57.5 64.5q68 78 158 176 l139 -176q-98 -68 -176 -121q-33 -23 -64.5 -45t-56.5 -39.5t-32 -23.5l-23 -17q0 -2 -14.5 9.5t-32 24.5t-33 25.5t-17.5 12.5z" />
<glyph unicode="&#xfb;" d="M18 492v43.5t1 93t1 120t1.5 123t2.5 102.5t3 60l163 -2q-2 -8 -3 -48t-1 -96.5t1 -122t2 -121.5t2.5 -96t3.5 -48q8 -72 31.5 -129.5t67.5 -97.5t109.5 -59t157.5 -15q84 4 138.5 46t87 111.5t45 162.5t12.5 202q-6 92 -6 160.5t-4 148.5l227 -2q2 0 1 -45t-2 -120 t-3 -170t-4 -194.5t-4 -194.5t-4.5 -170t-3.5 -120l-1 -45q-4 2 -25.5 2t-47.5 -2q-31 -2 -68 -4q0 18 -2 41q-2 20 -4 48t-4 63q-59 -49 -137 -80t-177 -35q-123 -6 -225 23.5t-176 91t-115 156t-41 219.5zM246 1210q66 90 119 162q23 31 44 59.5t37.5 52t27.5 38.5l10 14 h215l162 -358l-50 -21q-10 -4 -18 -6t-16 -6t-17 -6l-82 143q-31 53 -55.5 97t-24.5 46l-11 -21q-11 -22 -29.5 -54.5t-39 -71.5t-38 -71.5t-29.5 -55.5l-12 -23q-2 0 -33 12.5t-66 28.5z" />
<glyph unicode="&#xfc;" d="M18 492v43.5t1 93t1 120t1.5 123t2.5 102.5t3 60l163 -2q-2 -8 -3 -48t-1 -96.5t1 -122t2 -121.5t2.5 -96t3.5 -48q8 -72 31.5 -129.5t67.5 -97.5t109.5 -59t157.5 -15q84 4 138.5 46t87 111.5t45 162.5t12.5 202q-6 92 -6 160.5t-4 148.5l227 -2q2 0 1 -45t-2 -120 t-3 -170t-4 -194.5t-4 -194.5t-4.5 -170t-3.5 -120l-1 -45q-4 2 -25.5 2t-47.5 -2q-31 -2 -68 -4q0 18 -2 41q-2 20 -4 48t-4 63q-59 -49 -137 -80t-177 -35q-123 -6 -225 23.5t-176 91t-115 156t-41 219.5zM236 1264.5q-5 25.5 14.5 57t62.5 62.5q45 31 81 31t59.5 -18.5 t31.5 -49t-2 -61.5t-43 -53.5t-90 -24.5q-51 -2 -80 14.5t-34 42zM564 1264.5q-5 25.5 14.5 57t62.5 62.5q45 31 80.5 31t59 -18.5t32 -49t-2 -61.5t-43 -53.5t-90.5 -24.5q-51 -2 -79.5 14.5t-33.5 42z" />
<glyph unicode="&#xfd;" horiz-adv-x="1206" d="M6 842q-2 2 27.5 25.5t65.5 51t68 49.5l32 23q82 -131 161 -258q33 -55 70 -114.5t74 -118t70.5 -113.5t64.5 -102q66 141 130.5 275t113.5 239q57 123 110 233l32 -18q32 -19 70 -40.5t68.5 -40t28.5 -18.5t-37 -62t-91 -164.5t-128 -233.5t-146.5 -268.5t-146.5 -269.5 t-128 -234.5t-90 -166t-34 -65.5q0 -4 -17.5 7.5t-39.5 25.5q-25 16 -55 39l276 583zM380 1190q-2 0 10.5 14.5t34 39t50 56t57.5 64.5q68 78 158 176l139 -176q-98 -68 -176 -121q-33 -23 -64.5 -45t-56.5 -39.5t-32 -23.5l-23 -17q0 -2 -14.5 9.5t-32 24.5t-33 25.5 t-17.5 12.5z" />
<glyph unicode="&#xfe;" horiz-adv-x="876" d="M42 1349.5q-1 77.5 1 77.5q4 -2 25.5 -2t48.5 2q31 2 67 5l23 -416q63 12 129 12q111 0 196.5 -36t147 -99.5t96.5 -148.5t45 -181q8 -98 -17.5 -195.5t-87 -177t-157.5 -131t-227 -57.5q-37 -2 -70 0l23 -410h-109q-20 0 -38.5 -1t-35.5 -1h-32l-1 79t-4.5 208t-6.5 295 t-5 338t-5 337t-4 295t-2 207.5zM215 860l39 -704h37q98 0 166.5 54t103.5 134t38 173t-27.5 173t-97 131t-169.5 49q-25 -2 -47 -4t-43 -6z" />
<glyph unicode="&#xff;" horiz-adv-x="1206" d="M6 842q-2 2 27.5 25.5t65.5 51t68 49.5l32 23q82 -131 161 -258q33 -55 70 -114.5t74 -118t70.5 -113.5t64.5 -102q66 141 130.5 275t113.5 239q57 123 110 233l32 -18q32 -19 70 -40.5t68.5 -40t28.5 -18.5t-37 -62t-91 -164.5t-128 -233.5t-146.5 -268.5t-146.5 -269.5 t-128 -234.5t-90 -166t-34 -65.5q0 -4 -17.5 7.5t-39.5 25.5q-25 16 -55 39l276 583zM286 1264.5q-5 25.5 14.5 57t62.5 62.5q45 31 81 31t59.5 -18.5t31.5 -49t-2 -61.5t-43 -53.5t-90 -24.5q-51 -2 -80 14.5t-34 42zM614 1264.5q-5 25.5 14.5 57t62.5 62.5q45 31 80.5 31 t59 -18.5t32 -49t-2 -61.5t-43 -53.5t-90.5 -24.5q-51 -2 -79.5 14.5t-33.5 42z" />
<glyph unicode="&#x152;" horiz-adv-x="1210" d="M4 752q20 184 72.5 310t130.5 202.5t180 111.5t223 37v-2q80 2 168 6t161 7t120 6l47 2q0 -2 2 -31t3 -62.5t1 -62.5t-4 -31t-48 -2t-112.5 1t-152.5 2t-166 3l28 -405q57 8 119 17t113 18.5t67 12.5l48 7q0 -2 3 -28.5t6 -59.5t4 -60.5t-3 -29.5t-36 -2h-81h-110.5 h-120.5l34 -549q16 4 89 5t157 5q98 2 215 6q-2 0 -2 -27.5t-2 -62.5q-2 -39 -2 -90q-162 0 -266.5 -1t-164.5 -1t-88 -1t-36 -1t-7 0t-3 0q-154 0 -266.5 59.5t-185 162t-106.5 238.5t-28 290zM143 664q2 -100 26 -187.5t67 -153t108.5 -106.5t155.5 -49l-19 1061 q-70 -16 -133 -61.5t-109 -116t-73 -167.5t-23 -220z" />
<glyph unicode="&#x153;" horiz-adv-x="1765" d="M2 559q12 141 70.5 232.5t139.5 143.5t173 72.5t174 20.5q92 0 169 -26.5t136 -73.5q82 55 175.5 76.5t179.5 23.5q111 0 195.5 -35t146 -97t97.5 -146t48 -179q0 -2 -64.5 -9t-163 -17t-212 -21.5t-211 -23t-163 -18.5t-65.5 -9q4 -61 25.5 -119.5t63.5 -102.5 t105.5 -69.5t152.5 -25.5q84 0 149.5 48t103.5 109l197 -82q-59 -88 -163.5 -155.5t-246.5 -73.5q-227 -10 -372 92q-57 -41 -129 -64.5t-158 -27.5q-131 -6 -238.5 27.5t-182.5 104.5t-109.5 177.5t-22.5 247.5zM144 508q-1 -92 39 -171t123 -130t208 -51q61 0 111.5 21.5 t87.5 60.5q-70 133 -51 321q12 135 69 232q-37 39 -87 60t-116 19q-125 -4 -210 -58t-129 -133t-45 -171zM842 612l286 50q53 8 104.5 17t90.5 15t63 10l23 5q-10 57 -75.5 99t-172.5 40q-139 -4 -221 -66.5t-98 -169.5z" />
<glyph unicode="&#x178;" horiz-adv-x="1148" d="M2 1274q-2 2 27.5 25.5t65.5 51t68 49.5l32 23q78 -115 155 -227q66 -96 139.5 -202.5t133.5 -192.5q74 117 144.5 227.5t125.5 197.5t88 140t33 55t16.5 -8t38.5 -24q25 -16 57 -39q-63 -111 -131 -232q-59 -104 -131.5 -234t-146.5 -263l59 -619h-108q-20 0 -39 -1 t-35 -1h-33v30v81.5v115v132t1 131t1 110.5zM257 1674.5q-5 25.5 14.5 57t62.5 62.5q45 31 81 31t59.5 -18.5t31.5 -49t-2 -61.5t-43 -53.5t-90 -24.5q-51 -2 -80 14.5t-34 42zM585 1674.5q-5 25.5 14.5 57t62.5 62.5q45 31 80.5 31t59 -18.5t32 -49t-2 -61.5t-43 -53.5 t-90.5 -24.5q-51 -2 -79.5 14.5t-33.5 42z" />
<glyph unicode="&#x2c6;" horiz-adv-x="671" d="M6 1210q66 90 119 162q23 31 44 59.5t37.5 52t27.5 38.5l10 14h215l162 -358l-50 -21q-10 -4 -18 -6t-16 -6t-17 -6l-82 143q-31 53 -55.5 97t-24.5 46l-11 -21q-11 -22 -29.5 -54.5t-39 -71.5t-38 -71.5t-29.5 -55.5l-12 -23q-2 0 -33 12.5t-66 28.5z" />
<glyph unicode="&#x2dc;" horiz-adv-x="636" d="M10 1221q-4 -2 1 16t18.5 47t33 62.5t41 62.5t45 47.5t46.5 16.5q33 -4 62.5 -27t55 -49.5t46 -46t32.5 -17.5t27.5 25.5t30.5 52.5q16 33 30 72l105 -56q-25 -63 -49 -114q-23 -45 -50.5 -83t-58.5 -46q-47 -12 -75.5 -1t-49 29.5t-39 34t-43.5 13.5q-25 -4 -40 -20.5 t-25 -35.5q-10 -23 -17 -49l-57 37q-23 14 -43.5 23.5t-26.5 5.5z" />
<glyph unicode="&#x2000;" horiz-adv-x="980" />
<glyph unicode="&#x2001;" horiz-adv-x="1961" />
<glyph unicode="&#x2002;" horiz-adv-x="980" />
<glyph unicode="&#x2003;" horiz-adv-x="1961" />
<glyph unicode="&#x2004;" horiz-adv-x="653" />
<glyph unicode="&#x2005;" horiz-adv-x="490" />
<glyph unicode="&#x2006;" horiz-adv-x="326" />
<glyph unicode="&#x2007;" horiz-adv-x="326" />
<glyph unicode="&#x2008;" horiz-adv-x="245" />
<glyph unicode="&#x2009;" horiz-adv-x="392" />
<glyph unicode="&#x200a;" horiz-adv-x="108" />
<glyph unicode="&#x2010;" horiz-adv-x="643" d="M25 731.5q0 16.5 2 38.5l4 57q154 20 276 35q51 6 101.5 12.5t89.5 10.5t50 5l36 3q0 -2 3 -28.5t6 -59.5t4 -60.5t-3 -29.5q-2 -2 -45 -2h-105.5h-135t-135 1t-104.5 1h-42q-2 0 -2 16.5z" />
<glyph unicode="&#x2011;" horiz-adv-x="643" d="M25 731.5q0 16.5 2 38.5l4 57q154 20 276 35q51 6 101.5 12.5t89.5 10.5t50 5l36 3q0 -2 3 -28.5t6 -59.5t4 -60.5t-3 -29.5q-2 -2 -45 -2h-105.5h-135t-135 1t-104.5 1h-42q-2 0 -2 16.5z" />
<glyph unicode="&#x2012;" horiz-adv-x="643" d="M25 731.5q0 16.5 2 38.5l4 57q154 20 276 35q51 6 101.5 12.5t89.5 10.5t50 5l36 3q0 -2 3 -28.5t6 -59.5t4 -60.5t-3 -29.5q-2 -2 -45 -2h-105.5h-135t-135 1t-104.5 1h-42q-2 0 -2 16.5z" />
<glyph unicode="&#x2013;" horiz-adv-x="874" d="M25 731.5q0 16.5 2 38.5l4 57q211 20 379 35q70 6 138 12.5t121.5 10.5t70.5 5l48 3q0 -2 3.5 -28.5t6.5 -59.5t4 -60.5t-3 -29.5q-2 -2 -60.5 -2h-143.5h-184.5t-184.5 1t-142 1h-57q-2 0 -2 16.5z" />
<glyph unicode="&#x2014;" horiz-adv-x="1071" d="M25 731.5q0 16.5 2 38.5l4 57q268 20 481 35q90 6 176 12.5t153.5 10.5t88.5 5l63 3q0 -2 3 -28.5t6.5 -59.5t4.5 -60.5t-3 -29.5q-2 -2 -45.5 -2h-112h-155.5h-178h-178t-155.5 1t-110.5 1h-42q-2 0 -2 16.5z" />
<glyph unicode="&#x2018;" horiz-adv-x="317" d="M18 999q18 80 42 146.5t69 134.5l55 -4q-16 -41 -22 -90t-2 -84h2q51 2 79.5 -14.5t34 -42t-14 -57t-62.5 -62.5t-77 -32t-57.5 14.5t-35 41t-11.5 49.5z" />
<glyph unicode="&#x2019;" horiz-adv-x="321" d="M7 1129.5q-5 25.5 14.5 57t62.5 62.5t77 32t57.5 -14.5t34.5 -41t11 -49.5q-18 -80 -41.5 -146.5t-68.5 -134.5l-56 4q16 41 22.5 90t2.5 84h-2q-51 -2 -80 14.5t-34 42z" />
<glyph unicode="&#x201c;" horiz-adv-x="540" d="M18 999q18 80 42 146.5t69 134.5l55 -4q-16 -41 -22 -90t-2 -84h2q72 0 100 -31q16 55 36.5 105.5t55.5 103.5l56 -4q-16 -41 -22.5 -90t-2.5 -84h2q51 2 80 -14.5t34 -42t-14.5 -57t-62.5 -62.5q-37 -25 -66.5 -30t-53 4t-38 27.5t-20.5 41.5q-16 -18 -47 -43 q-43 -31 -77 -32t-57.5 14.5t-35 41t-11.5 49.5z" />
<glyph unicode="&#x201d;" horiz-adv-x="522" d="M3 1125.5q-5 25.5 14.5 57t62.5 62.5q37 25 66.5 30t52 -4t37 -28.5t20.5 -40.5q18 20 49 43q43 31 77 32t57.5 -14.5t34.5 -41t11 -50.5q-18 -80 -41.5 -146.5t-68.5 -133.5l-56 4q16 41 22.5 90t2.5 84h-2q-72 -2 -100 29q-16 -55 -37 -105.5t-55 -101.5l-56 4 q16 41 22.5 90t2.5 84h-2q-51 -2 -80 14.5t-34 42z" />
<glyph unicode="&#x2022;" horiz-adv-x="485" d="M4 737q-8 43 24.5 95.5t106.5 103.5q76 53 138.5 53t101.5 -31.5t53 -83t-4 -101.5t-73.5 -88t-153.5 -42q-86 -2 -135.5 24.5t-57.5 69.5z" />
<glyph unicode="&#x2026;" horiz-adv-x="1093" d="M56 56.5q-5 25.5 14.5 57t62.5 62.5q45 31 81 31t59.5 -18.5t31.5 -49t-2 -61.5t-43 -53.5t-90 -24.5q-51 -2 -80 14.5t-34 42zM421 56.5q-5 25.5 14.5 57t62.5 62.5q45 31 80.5 31t59.5 -18.5t32 -49t-2.5 -61.5t-43 -53.5t-89.5 -24.5q-51 -2 -80 14.5t-34 42z M785.5 56.5q-5.5 25.5 14 57t62.5 62.5q45 31 81 31t59.5 -18.5t31.5 -49t-2 -61.5t-43 -53.5t-90 -24.5q-51 -2 -79.5 14.5t-34 42z" />
<glyph unicode="&#x202f;" horiz-adv-x="392" />
<glyph unicode="&#x205f;" horiz-adv-x="490" />
<glyph unicode="&#x20ac;" horiz-adv-x="1054" d="M2 587.5q0 16.5 2 39.5l4 57q6 0 15 2q8 0 18 1t22 3v32.5t3 33.5v30.5t2 28.5h-45q-10 0 -19 2q-2 0 -2 16.5t2 38.5l4 58q10 0 21 2q10 0 23.5 1t31.5 3q35 184 124 305t210 159t263 -17.5t286 -221.5l-125 -98q-88 100 -175 141t-163 24.5t-134.5 -86t-84.5 -186.5 q74 8 148.5 15.5t135 12.5t98.5 8l38 3q0 -2 3 -28.5t6 -59.5t4 -60.5t-3 -29.5q-2 -2 -45 -3t-107.5 -1t-143.5 1t-155 1q-2 -51 0 -106q74 8 153 15t142.5 13t104.5 9l41 4q0 -2 3 -29t6 -59.5t4 -60.5t-3 -30q-2 -2 -43 -3t-104.5 -1t-140.5 1t-151 1q29 -186 102 -285.5 t163 -118t185 42t171 195.5l119 -90q-82 -127 -178.5 -201.5t-195.5 -98t-193.5 2t-172 97t-132 186.5t-72.5 270h-49q-10 0 -19 2q-2 0 -2 16.5z" />
<glyph unicode="&#xe000;" horiz-adv-x="1024" d="M0 0v1024h1024v-1024h-1024z" />
<glyph unicode="&#xfb01;" horiz-adv-x="847" d="M-2 963l160 14q-4 88 8 166t45 138t88 96t139 40q70 2 124 -24.5t93 -65.5t64.5 -81l42.5 -70q0 -2 -15.5 -20.5t-35 -40t-37.5 -39.5l-17 -19q-10 4 -25.5 29.5t-36 53t-48 47t-62.5 13.5q-47 -10 -73.5 -61.5t-40.5 -143.5l426 39q0 -2 -1 -47t-2 -118.5t-3.5 -167 t-4.5 -190.5t-4 -190.5t-4 -166t-3 -116.5t-3 -44q-4 2 -25.5 2t-48.5 -2q-31 -2 -67 -4q-2 127 -8 270q-4 123 -10.5 274.5t-16.5 305.5q-35 -2 -72 -2q-33 0 -75.5 -1t-90.5 -1q-8 -152 -2 -357t15 -461l-142 -20l-61 833q-66 -2 -111 -3t-45 1l-3 21q-3 20 -5 45t-4 45.5 t-2 22.5z" />
<glyph unicode="&#xfb02;" horiz-adv-x="958" d="M4 854q0 16 2 39l4 57q4 2 10 2q14 0 25 2q-4 92 6 174t43 145.5t89.5 101.5t142.5 42q49 2 91 -12t75.5 -36.5t59.5 -51.5t46 -57q-2 49 -2 92v78l143 2l86 -1233q16 4 32.5 5t29.5 5q14 2 28 6q-2 0 -2 -34t-2 -75q-2 -47 -2 -106h-284l-1 50t-3.5 135t-5.5 198 t-5 237.5t-5 251.5t-5 244q-10 -12 -19.5 -22.5t-17.5 -18.5l-18 -18q-10 4 -25.5 29.5t-36 53t-48 47t-62.5 13.5q-47 -10 -75 -63.5t-40 -149.5q43 6 83 11.5t70.5 9.5t40.5 5l29 3q0 -2 3 -28.5t6.5 -59.5t4.5 -60.5t-3 -29.5q-2 -2 -25 -3t-56.5 -1h-76.5h-88 q-8 -152 -2 -356t14 -460l-141 -20l-64 838h-33q-8 0 -14 2q-2 0 -2 16z" />
<glyph unicode="&#xfb03;" horiz-adv-x="1234" d="M4 854q0 16 2 39l4 57h8h10.5t16.5 2q-6 92 5 175t43 146.5t89.5 101.5t143.5 42q49 2 89 -11t72.5 -34.5t58 -49.5t46.5 -56q33 66 89 106.5t146 44.5q70 2 124.5 -24.5t93 -65.5t64.5 -81t42 -70q0 -2 -15.5 -20.5t-35 -40t-36.5 -39.5l-17 -19q-10 4 -25.5 29.5 t-36 53t-48.5 47t-63 13.5q-47 -10 -72.5 -59t-39.5 -140l424 33q0 -2 -1 -47t-2 -118.5t-3 -167t-4 -190.5t-4.5 -190.5t-4.5 -166t-3 -116.5t-3 -44q-4 2 -25.5 2t-48.5 -2q-31 -2 -67 -4q-2 127 -8 270q-4 123 -10.5 274.5t-16.5 305.5q-39 0 -80 -2q-35 -2 -77 -3 t-80 -4q-6 -152 -1 -354.5t13 -458.5l-142 -20l-61 825l-311 6q-6 -150 -1 -353.5t13 -457.5l-141 -20l-64 838h-35q-8 0 -12 2q-2 0 -2 16zM256 967q72 6 147.5 11t141.5 9v35.5t2 36.5l-2 -2q-10 4 -25.5 29.5t-36 53t-48 47t-62.5 13.5q-49 -10 -77 -68.5t-40 -164.5z " />
<glyph unicode="&#xfb04;" horiz-adv-x="1460" d="M4 854q0 16 2 39l4 57h8h10.5t16.5 2q-6 92 5 175t43 146.5t89.5 101.5t143.5 42q49 2 89 -11t72.5 -34.5t58 -49.5t46.5 -56q33 66 89 106.5t146 44.5q70 2 124.5 -24.5t93 -65.5t64.5 -81t42 -70q0 -2 -15.5 -20.5t-35 -40t-36.5 -39.5l-17 -19q-10 4 -25.5 29.5 t-36 53t-48.5 47t-63 13.5q-84 -14 -112 -196q45 4 84 5t67 3q33 2 60 4q0 -2 3 -28.5t6 -59.5t4 -60.5t-3 -29.5t-70.5 -3t-164.5 -1q-8 -152 -2 -356t14 -460l-142 -20l-63 836q-82 0 -160 1t-149 1q-8 -152 -2 -357t14 -461l-141 -20l-64 840h-47q-2 0 -2 16zM256 969 q66 4 139.5 9t149.5 11v34.5t2 35.5l-2 -2q-10 4 -25.5 29.5t-36 53t-48 47t-62.5 13.5q-49 -10 -77 -68.5t-40 -162.5zM1098 1430l143 2l86 -1233q16 4 32.5 5t29.5 5q14 2 28 6q-2 0 -2 -34t-2 -75q-2 -47 -2 -106h-285l-2 80t-5 207t-6 286.5t-6 318.5t-6 301t-3 237z " />
</font>
</defs>
</svg>
